WWE Hell In A Cell 2018 PPV 720p WEB HEEL mp4

WWE Hell In A Cell 2018 PPV 720p WEB HEEL mp4

 

 

 

 


 

 

 

dx-tv.com

 

 

 

 

 
Complete name : WWE.Hell.In.A.Cell.2018.PPV.720p.WEB.h264-HEEL.mp4
Format : MPEG-4
Format profile : Base Media
File size : 6.95 GiB
Duration : 3 h 40 min
Overall bit rate mode : Variable
Overall bit rate : 4 507 kb/s
Writing application : Lavf58.2.103

Video
ID : 1
Format : AVC
Format/Info : Advanced Video Codec
Codec ID/Info : Advanced Video Coding
Duration : 3 h 40 min
Duration_FirstFrame : 10 ms
Bit rate mode : Constant
Bit rate : 4 372 kb/s
Width : 1 280 pixels
Height : 720 pixels
Display aspect ratio : 16:9
Frame rate mode : Constant
Frame rate : 29.970
Color space : YUV
Chroma subsampling : 4:2:0
Bit depth : 8 bits
Scan type : Progressive
Bits/(Pixel*Frame) : 0.158
Stream size : 6.74 GiB (97%)

Audio
ID : 2
Format : AAC
Format/Info : Advanced Audio Codec
Format profile : LC
Codec ID : mp4a-40-2
Duration : 3 h 40 min
Bit rate mode : Variable
Bit rate : 125 kb/s
Maximum bit rate : 128 kb/s
Channel(s) : 2 channels
Channel positions : Front: L R
Sampling rate : 48.0 kHz
Frame rate : 46.875 FPS
Compression mode : Lossy
Stream size : 198 MiB (3%)
Language : English

 

 

 

 

 

WWE Hell In A Cell 2018 PPV 720p WEB HEEL mp4

 

 

 

 

Watch online

 

 

Waiting finish converting video

 

 

Server 1

 

 

 

 

 

 

 

 

 

 

 

 

 

 

 

Server 2

 

 

 

 

 

 

 


 

 

 

 

 

 

Uploaded By Site DX-TV.com

 

 

 

open rar file to see this password

 

 

 

 

The password : DX-TV.com

 

 

 

 

 

 

Uploaded.net + rapidgator.net

 

 

 

 

 
http://shrt10.com/tIFCqS
 

 

 

http://shrt10.com/35lCr
 

 

 

http://shrt10.com/W9oz

 

 

 
http://shrt10.com/A8aS4wTy
 

 

 

 

 

 

 

 

 

WWE Hell In A Cell 2018 PPV 720p WEB HEEL mp4