WWE Hell In A Cell 2018 PPV 720p HDTV VERUM

WWE Hell In A Cell 2018 PPV 720p HDTV VERUM

 

 

 

 


 

 

 

dx-tv.com

 

 

 

 

 

Complete name : WWE.Hell.In.A.Cell.2018.PPV.720p.HDTV.x264-VERUM.mkv
Format : Matroska
Format version : Version 4 / Version 2
File size : 9.09 GiB
Duration : 3 h 40 min
Overall bit rate : 5 895 kb/s

Video
ID : 1
Format : AVC
Format/Info : Advanced Video Codec
Duration : 3 h 40 min
Bit rate : 5 522 kb/s
Width : 1 280 pixels
Height : 720 pixels
Display aspect ratio : 16:9
Frame rate mode : Constant
Frame rate : 50.000 FPS
Color space : YUV
Chroma subsampling : 4:2:0
Bit depth : 8 bits
Scan type : Progressive
Bits/(Pixel*Frame) : 0.120
Stream size : 8.52 GiB (94%)
Language : English
Default : Yes
Forced : No
Color range : Limited
Matrix coefficients : BT.709

Audio
ID : 2
Format version : Version 1
Format profile : Layer 2
Codec ID : A_MPEG/L2
Codec ID/Hint : MP2
Duration : 3 h 40 min
Bit rate mode : Constant
Bit rate : 256 kb/s
Channel(s) : 2 channels
Sampling rate : 48.0 kHz
Compression mode : Lossy
Stream size : 404 MiB (4%)
Language : English
Default : Yes
Forced : No

 

 

 

 

 

 

 

 

 

WWE Hell In A Cell 2018 PPV 720p HDTV VERUM

 

 

 

 

Watch online

 

 

Waiting finish converting video

 

 

Server 1

 

 

 

 

 

 

 

 

 

 

 

 

 

 

 

 

Server 2

 

 

 

 

 

 


 

 

 

 

 

 

 

Uploaded By Site DX-TV.com

 

 

 

open rar file to see this password

 

 

 

 

The password : DX-TV.com

 

 

 

 

Uploaded.net + rapidgator.net

 

 

 

 

 
http://shrt10.com/7g787
 

 

 

http://shrt10.com/BDnsr
 

 

 

http://shrt10.com/M34Ek
 

 

 

http://shrt10.com/l9zC
 

 

 

 

 

WWE Hell In A Cell 2018 PPV 720p HDTV VERUM