WWE Greatest Royal Rumble 2018 PPV 1080p HDTV Ebi

WWE Greatest Royal Rumble 2018 PPV 1080p HDTV Ebi

 

 

 

 

 

 

 

 

 

dx-tv.com

 

 

 

 

 

Complete name : WWE.Greatest.Royal.Rumble.2018.PPV.1080p.HDTV.x264-Ebi.mp4
Format : MPEG-4
Format profile : Base Media / Version 2
Codec ID : mp42
File size : 18.3 GiB
Duration : 5h 0mn
Overall bit rate : 8 724 Kbps
Encoded date : UTC 2018-04-28 04:51:02
Tagged date : UTC 2018-04-28 04:51:02

Video
ID : 1
Format : AVC
Format/Info : Advanced Video Codec
Codec ID : avc1
Codec ID/Info : Advanced Video Coding
Duration : 5h 0mn
Bit rate mode : Variable
Bit rate : 8 500 Kbps
Width : 1 920 pixels
Height : 1 080 pixels
Display aspect ratio : 16:9
Frame rate mode : Constant
Frame rate : 29.970 fps
Color space : YUV
Chroma subsampling : 4:2:0
Bit depth : 8 bits
Scan type : Progressive
Bits/(Pixel*Frame) : 0.137
Stream size : 17.8 GiB (97%)

Audio
ID : 2
Format : AAC
Format/Info : Advanced Audio Codec
Format profile : LC
Codec ID : 40
Duration : 5h 0mn
Bit rate mode : Variable
Bit rate : 224 Kbps
Channel(s) : 2 channels
Channel positions : Front: L R
Sampling rate : 48.0 KHz
Compression mode : Lossy
Stream size : 482 MiB (3%)
Title : Stereo
Encoded date : UTC 2018-04-28 04:51:02
Tagged date : UTC 2018-04-28 04:51:02

 

 

 

 

 

 

 

WWE Greatest Royal Rumble 2018 PPV 1080p HDTV Ebi

 

 

 

 

 

 

Uploaded By Site DX-TV.com

 

 

 

open rar file to see this password

 

 

 

 

The password is : DX-TV.com

 

 

 

 

1080p

 

 

 

 

 

Uploaded.net + rapidgator.net

 

 

 

 

 

http://shrt10.com/a6b2Yv8m

 

http://shrt10.com/GqHsqV8

 

http://shrt10.com/oriKQy

 

http://shrt10.com/MTjI

 

http://shrt10.com/gxZQIpe

 

http://shrt10.com/PN9Pj

 

http://shrt10.com/wK22hd4Z

 

http://shrt10.com/zOlvlVE

 

http://shrt10.com/0UyeWm

 

http://shrt10.com/5GDaO1v

 

http://shrt10.com/cDlvjZWR

 

http://shrt10.com/udPW9hSR

 

 

 

 

 

 

 

 

 

WWE Greatest Royal Rumble 2018 PPV 1080p HDTV Ebi