WWE Greatest Ladder Matches 09 May 2020 720p

Watch WWE Greatest Ladder Matches 09 May 2020 720p DX-TV

WWE

 WWE Greatest Ladder

 

 

WWE Greatest Ladder Matches 09 May 2020 720p

 

Complete name : WWE.Greatest.Ladder.Matches.2020.05.09.720p.WEB.h264-HEEL.mp4
Format : MPEG-4
Format profile : Base Media
Codec ID : isom
File size : 6.69 GiB
Duration : 1 h 28 min
bit rate mode : VariWWEable
Overall bit rate : 10.8 Mb/s

Video
ID : 1
Format : AVC
Format/Info : WWE
Codec ID : avc1
Codec ID/Info : WWE
Duration : 1 h 28 min
Bit rate mode : Variable
Bit rate : 10.8 Mb/s
Maximum bit rate : 12.0 Mb/s
Width : 1 280 pixels
Height : 720 pixels
aspect ratio : 16:9
rate : 59.940 FPS
frame rate : 60.852 FPS
Color space : WWE
Chroma subsampling : 4:2:0
Bit depth : 8 bits
Scan type : WWE
Bits/(Pixel*Frame) : 0.195
Stream size : 6.64 GiB (99%)
Color range : Limited
Color primaries : BT.709
Transfer characteristics : BT.709
Matrix coefficients : WWE
Codec configuration box : avcC

Audio
ID : 2
Format : WWE
Commercial name : HE-AAC
Format settings : Implicit
Codec ID : WWE
Duration : 1 h 28 min
Bit rate mode : Constant
Bit rate : 62.8 kb/s
Channel(s) : 2 channels
Channel layout : L R
Sampling rate : 48.0 kHz
Frame rate : 23.438 FPS (2048 SPF)
Compression mode : Lossy
Stream size : 39.7 MiB (1%)
Default : Yes
Alternate group : WWE

 

 

 

Watch online

 

 

Server 1

 

 

 

 

watch now

 

 

 

 

Server 2

 

 

 

watch now

 

 

 

WWE Greatest Ladder Matches 09 May 2020 720p

 

 

Uploaded By Site DX-TV.com

 

 

 

Download with premium account LinksĀ 

 

 

nitroflare.com

 

 

rapidgator.net

 

 

uploadgig.com

 

 

 

dx-tv.com

 

urlfree.net

You May Also Like