WWE Friday Night SmackDown 2021 04 30 720p

WWE Friday Night SmackDown 2021 04 30 720p DX-TV

WWE Friday Night SmackDown

 WWE Friday Night SmackDown

 

 

 

Download Links with High Speed


 

Dopapk

 

 

Show Links

 

http://shrt10.com/JtPD2pEZ
http://shrt10.com/YGyhyP4

 

[collapse]

 

 

Nitroflare

 

 

Show Links

 

http://shrt10.com/OSzxtJzp
http://shrt10.com/5c73Ycl

 

[collapse]

 

 

Rapidgator

 

 

Show Links

 

http://shrt10.com/h1vwGxvt1
http://shrt10.com/L84Nx66

 

[collapse]

 

 

Uploaded

 

 

Show Links

 

http://shrt10.com/kvaHc
http://shrt10.com/aZTyUeO

 

[collapse]

 

 

Watch online

 

Server 1

 

 

 

 

WWE Friday Night SmackDown

 

 

 

 

Server-2

 

 

 

 

watch now

 

 

 

|Server-3

 

 

 

 

watch now

 

 

Uploaded By Site DX-TV.com

 

 

Show Info This Show

 

 

Complete name : WWE.Friday.Night.SmackDown.2021.04.30.720p.HDTV.x264-NWCHD.mp4
Format : MPEG-4
Format profile : Base Media
Codec ID : isom
File size : 2.73 GiB
Duration : 1 h 23 min
Overall bit rate : 4 697 kb/s

WWE Friday Night SmackDown

Video
ID : 1
Format : AVC
Format/Info : Advanced Video
Duration : 1 h 23 min
Bit rate : 4 500 kb/s
Width : 1 280 pixels
Height : 720 pixels
Display aspect ratio : 16:9
Frame rate mode : Variable
Frame rate : 29.970 (30000/1001) FPS
Minimum frame rate : 10.575 FPS
Maximum frame rate : 29.970 FPS
Color space : YUV
Chroma subsampling : 4:2:0
Bit depth : 8 bits
Scan type : Progressive
Bits/(Pixel*Frame) : 0.163
Stream size : 2.62 GiB (96%)
Color primaries : BT.709
Transfer characteristics : BT.709
Matrix coefficients : BT.709
Codec configuration box : avcC

Audio
ID : 2
Format : AAC LC
Codec ID : mp4a-40-2
Duration : 1 h 23 min
Bit rate mode : Constant
Bit rate : 192 kb/s
Channel(s) : 2 channels
Channel layout : L R
Sampling rate : 48.0 kHz
Frame rate : 46.875 FPS (1024 SPF)
Compression mode : Lossy
Stream size : 115 MiB (4%)
Title : Stereo
Language : English
Default : Yes
Alternate group : 1

Friday Night SmackDown

Complete name : WWE.Friday.Night.SmackDown.2021.04.30.HDTV.x264-NWCHD.mp4
Format : MPEG-4
Format profile : Base Media
Codec ID : isom
File size : 954 MiB
Duration : 1 h 23 min
Overall bit rate : 1 601 kb/s

Video
ID : 1
Format : AVC
Duration : 1 h 23 min
Bit rate : 1 400 kb/s
Width : 704 pixels
Height : 400 pixels
Display aspect ratio : 16:9
Frame rate mode : Variable
Frame rate : 29.970 (30000/1001) FPS
Minimum frame rate : 10.575 FPS
Maximum frame rate : 29.970 FPS
Color space : YUV
Chroma subsampling : 4:2:0
Bit depth : 8 bits
Scan type : Progressive
Bits/(Pixel*Frame) : 0.166
Stream size : 835 MiB (87%)
Color primaries : BT.709
Transfer characteristics : BT.709
Matrix coefficients : BT.709
Codec configuration box : avcC

Friday Night SmackDown

Audio
ID : 2
Format : AAC LC
Format/Info : Advanced Audio
Codec ID : mp4a-40-2
Duration : 1 h 23 min
Bit rate mode : Constant
Bit rate : 192 kb/s
Channel(s) : 2 channels
Channel layout : L R
Sampling rate : 48.0 kHz
Frame rate : 46.875 FPS (1024 SPF)
Compression mode : Lossy
Stream size : 115 MiB (12%)
Title : Stereo
Language : English
Default : Yes
Alternate group : 1

Friday Night SmackDown

 

[collapse]

 

 

https://dx-tv.com/