WWE Friday Night SmackDown 2020 12 18 /720p DX-TV

WWE Friday Night SmackDown 2020 12 18 HDTV NWCHD /720p DX-TV

WWE Friday Night SmackDown

 WWE Friday Night SmackDown

 

Download Links with premium High Speed   

 

 

dropapk.to

http://shrt10.com/k2Jc7Jmw
http://shrt10.com/PfGAhBKQ

 

 

nitroflare.com

http://shrt10.com/JfyaGsh4
http://shrt10.com/xF2uIAlz

 

 

rapidgator.net

http://shrt10.com/u35VwlX
http://shrt10.com/z204k

 

 

uploaded.net

http://shrt10.com/Hwwivnb
http://shrt10.com/YiH7oikUn

 

 

uploadgig.com

http://shrt10.com/pREUIZdry
http://shrt10.com/kBosEEY

 

 

Friday Night SmackDown

Watch online

 

Server 1

 

 

 

 

WWE Friday Night SmackDown

 

 

 

 

Server-2

 

 

 

 

watch now

 

 

Uploaded By Site DX-TV.com

 

 

 

[su_expand more_text=”Show More Info” less_text=”Close all Info” height=”50″ text_color=”#000000″ link_color=”#e25f8b” link_style=”button” more_icon=”icon: arrow-down” less_icon=”icon: arrow-up”]

Complete name : WWE.Friday.Night.SmackDown.2020.12.18.HDTV.x264-NWCHD.mp4
Format : MPEG-4
Format profile : Base Media
Codec ID : isom
File size : 966 MiB
Duration : 1 h 24 min
Overall bit rate : 1 593 kb/s
Writing application : Lavf58.27.103

WWE Friday Night SmackDown

Video
ID : 1
Format : AVC
Duration : 1 h 24 min
Bit rate : 1 400 kb/s
Width : 704 pixels
Height : 400 pixels
aspect ratio : 16:9
Frame rate mode : Variable
Frame rate : 29.970 FPS
Color space : YUV
Chroma subsampling : 4:2:0
Bit depth : 8 bits
Scan type : Progressive
Bits/(Pixel*Frame) : 0.166
Stream size : 844 MiB (87%)
Color primaries : BT.709
Transfer characteristics : BT.709
Matrix coefficients : BT.709
Codec configuration box : avcC

Audio
ID : 2
Format : AAC LC
Format/Info : Advanced Audio
Codec ID : mp4a-40-2
Duration : 1 h 24 min
Bit rate mode : Constant
Bit rate : 192 kb/s
Channel(s) : 2 channels
Channel layout : L R
Sampling rate : 48.0 kHz
Frame rate : 46.875 FPS (1024 SPF)
Compression mode : Lossy
Stream size : 117 MiB (12%)
Title : Stereo
Language : English
Default : Yes
Alternate group : 1

 Friday Night SmackDown

Complete name : WWE.Friday.Night.SmackDown.2020.12.18.720p.HDTV.x264-NWCHD.mp4
Format : MPEG-4
Format profile : Base Media
File size : 2.77 GiB
Duration : 1 h 24 min
Overall bit rate : 4 673 kb/s
Writing application : Lavf58.51.101

Video
ID : 1
Format : AVC
Duration : 1 h 24 min
Bit rate : 4 500 kb/s
Width : 1 280 pixels
Height : 720 pixels
aspect ratio : 16:9
Frame rate mode : Variable
Frame rate : 29.970 FPS
Color space : YUV
Chroma subsampling : 4:2:0
Bit depth : 8 bits
Scan type : Progressive
Bits/(Pixel*Frame) : 0.163
Stream size : 2.65 GiB (96%)
Color primaries : BT.709
Transfer characteristics : BT.709
Matrix coefficients : BT.709
Codec configuration box : avc

 Friday Night SmackDown

Audio
ID : 2
Format : AAC LC
Codec ID : mp4a-40-2
Duration : 1 h 24 min
Bit rate mode : Constant
Bit rate : 192 kb/s
Channel(s) : 2 channels
Channel layout : L R
Sampling rate : 48.0 kHz
Frame rate : 46.875 FPS
Compression mode : Lossy
Stream size : 117 MiB (4%)
Title : Stereo
Language : English
Default : Yes
Alternate group : 1

WWE Friday Night  

[/su_expand]

 

https://dx-tv.com/

You May Also Like

Leave a Reply

Your email address will not be published. Required fields are marked *

This site uses Akismet to reduce spam. Learn how your comment data is processed.