WWE Fastlane 2021 Full Show Replay Online HDTV DX-TV

WWE Fastlane 2021 Full Show Replay Online HDTV DX-TV

WWE Fastlane 2021 Full Show

 WWE Fastlane 2021 Full Show

 

 

 

Download Links with High Speed


Dopapk

 

 

Show Links

 

http://shrt10.com/xaAZuWtP

 

[collapse]

 

 

Nitroflare

 

 

Show Links

 

http://shrt10.com/ANeqw

 

[collapse]

 

 

Rapidgator

 

 

Show Links

 

http://shrt10.com/Hd0zWBIi

 

[collapse]

 

 

Uploaded

 

 

Show Links

 

http://shrt10.com/nv3v9pjtA

 

[collapse]

 

 

Watch online

 

Server 1

 

 

 

 

watch now

 

 

 

 

Server-2

 

 

 

 

WWE Fastlane 2021

 

 

 

|Server-3

 

 

 

 

watch now

 

 

Uploaded By Site DX-TV.com

 

 

Show Info This Show

 

 

Complete name : WWE Fastlane 2021 PPV Feed 480p HDTV H264 DX-TV.mp4
Format : MPEG-4
Format profile : Base Medi
File size : 1.91 GiB
Duration : 2 h 44 min
Overall bit rate : 1 663 kb/s

WWE Fastlane 2021

Video
ID : 1
Format : AVC
Duration : 2 h 44 min
Bit rate : 1 500 kb/s
Width : 720 pixels
Height : 480 pixels
Display aspect ratio : 16:9
Original display aspect rat : 16:9
Frame rate mode : Variable
Frame rate : 25.000 FPS
Minimum frame rate : 13.651 FPS
Maximum frame rate : 30.000 FPS
Color space : YUV
Chroma subsampling : 4:2:0
Bit depth : 8 bits
Scan type : Progressive
Bits/(Pixel*Frame) : 0.174
Stream size : 1.72 GiB (90%)
Color range : Limited
Color primaries : BT.709
Transfer characteristics : BT.709
Matrix coefficients : BT.709
Codec configuration box : avc

WWE Fastlane 2021

Audio
ID : 2
Format : AAC LC
Format/Info : Advanced Audio
Codec ID : mp4a-40-2
Duration : 2 h 44 min
Bit rate mode : Constant
Bit rate : 160 kb/s
Channel(s) : 2 channels
Channel layout : L R
Sampling rate : 48.0 kHz
Frame rate : 46.875 FPS (1024 SPF)
Compression mode : Lossy
Stream size : 188 MiB (10%)
Title : Stereo
Language : English
Default : Yes
Alternate group : 1

 

Audio
ID : 2
Format : AAC LC
Format/Info : Advanced Audio
Codec ID : mp4a-40-2
Duration : 2 h 44 min
Bit rate mode : Constant
Bit rate : 160 kb/s
Channel(s) : 2 channels
Channel layout : L R
Sampling rate : 48.0 kHz
Frame rate : 46.875 FPS (1024 SPF)
Compression mode : Lossy
Stream size : 188 MiB (10%)
Title : Stereo
Language : English
Default : Yes
Alternate group : 1

 

WWE Fastlane 2021

Audio
ID : 2
Format : AAC LC
Format/Info : Advanced Audio
Codec ID : mp4a-40-2
Duration : 2 h 44 min
Bit rate mode : Constant
Bit rate : 160 kb/s
Channel(s) : 2 channels
Channel layout : L R
Sampling rate : 48.0 kHz
Frame rate : 46.875 FPS (1024 SPF)
Compression mode : Lossy
Stream size : 188 MiB (10%)
Title : Stereo
Language : English
Default : Yes
Alternate group : 1

 

WWE Fastlane 2021

Audio
ID : 2
Format : AAC LC
Format/Info : Advanced Audio
Codec ID : mp4a-40-2
Duration : 2 h 44 min
Bit rate mode : Constant
Bit rate : 160 kb/s
Channel(s) : 2 channels
Channel layout : L R
Sampling rate : 48.0 kHz
Frame rate : 46.875 FPS (1024 SPF)
Compression mode : Lossy
Stream size : 188 MiB (10%)
Title : Stereo
Language : English
Default : Yes
Alternate group : 1

 

 

 

[collapse]

 

 

https://dx-tv.com/