WWE Fastlane 2021 1080i Multi Full HDTV Replay Free 32GB

WWE Fastlane 2021 1080i Multi Feed Replay Free 32GB DX-TV

WWE Fastlane 2021 1080i

WWE Fastlane 2021 1080i

 

 

 

Download Links with High Speed


Dopapk

 

 

Show Links

coming now

 

[collapse]

 

 

Nitroflare

 

 

Show Links

 

http://shrt10.com/D5J33        1080i 32GB

 

[collapse]

 

 

Rapidgator

 

 

Show Links

 

http://shrt10.com/VPGBx    1080i 32GB

 

[collapse]

 

 

Uploaded

 

 

Show Links

 

coming now

[collapse]

 

 

Watch online

 

Server 1

 

 

 

 

WWE Fastlane 2021

 

 

 

 

Server-2

 

 

 

 

watch now

 

 

 

|Server-3

 

 

 

 

WWE Fastlane 2021

 

 

Uploaded By Site DX-TV.com

 

 

Show Info This Show

 

 

Complete name : WWE.Fastlane.2021.PPV.1080i-JOKER2K.ts
Format : MPEG-TS
File size : 32.5 GiB
Duration : 2 h 44 min
Overall bit rate mode : Variable
Overall bit rate : 28.3 Mb/s

WWE Fastlane 2021

Video
Format : MPEG Video
Duration : 2 h 44 min
Bit rate mode : Variable
Bit rate : 25.4 Mb/s
Maximum bit rate : 26.6 Mb/s
Width : 1 920 pixels
Height : 1 080 pixels
Display aspect ratio : 16:9
Frame rate : 25.000 FPS
Color space : YUV
Chroma subsampling : 4:2:0
Bit depth : 8 bits
Scan type : Interlaced
Scan order : Top Field First
Compression mode : Lossy
Bits/(Pixel*Frame) : 0.489
Time code of first frame : 07:11:49:05
GOP, Open/Closed : Closed
Stream size : 29.1 GiB (90%)
Color primaries : BT.709
Transfer characteristics : BT.709
Matrix coefficients : BT.709

Audio #1
ID : 102 (0x66)
Menu ID : 1 (0x1)
Format : MPEG Audio
Format version : Version 1
Codec ID : 3
Duration : 2 h 44 min
Bit rate mode : Constant
Bit rate : 384 kb/s
Channel(s) : 2 channels
Sampling rate : 48.0 kHz
Frame rate : 41.667 FPS
Compression mode : Lossy
Delay relative to video : -309 ms
Stream size : 452 MiB (1%)
Language : English

WWE Fastlane 2021

Audio #2
ID : 103 (0x67)
Menu ID : 1 (0x1)
Format : MPEG Audio
Format version : Version 1
Codec ID : 3
Duration : 2 h 44 min
Bit rate mode : Constant
Bit rate : 384 kb/s
Channel(s) : 2 channels
Sampling rate : 48.0 kHz
Frame rate : 41.667 FPS
Compression mode : Lossy
Delay relative to video : -309 ms
Stream size : 452 MiB (1%)
Language : int

WWE Fastlane 2021

Audio #3
ID : 104 (0x68)
Menu ID : 1 (0x1)
Format : MPEG Audio
Format version : Version 1
Codec ID : 3
Duration : 2 h 44 min
Bit rate mode : Constant
Bit rate : 384 kb/s
Channel(s) : 2 channels
Sampling rate : 48.0 kHz
Frame rate : 41.667 FPS
Compression mode : Lossy
Delay relative to video : -309 ms
Stream size : 452 MiB
Language : Spanish

WWE Fastlane 2021

Audio #4
Format : MPEG Audio
Format profile : Layer 2
Codec ID : 3
Duration : 2 h 44 min
Bit rate mode : Constant
Bit rate : 384 kb/s
Channel(s) : 2 channels
Sampling rate : 48.0 kHz
Frame rate : 41.667 FPS
Compression mode : Lossy
Delay relative to video : -309 ms
Stream size : 452 MiB
Language : German

 

 

[collapse]

 

 

https://dx-tv.com/