WWE Extreme Rules 2018 PPV 720p WEB HEEL mp4 Download

WWE Extreme Rules 2018 PPV 720p WEB HEEL mp4 Download

 

 

 

 


 

 

 

dx-tv.com

 

 

 

Complete name : WWE.Extreme.Rules.2018.PPV.720p.WEB.h264-HEEL.mp4
Format : MPEG-4
Format profile : Base Media
Codec ID : isom
File size : 6.94 GiB
Duration : 3h 40mn
Overall bit rate : 4 506 Kbps

Video
ID : 1
Format : AVC
Format/Info : Advanced Video Codec
Codec ID : avc1
Codec ID/Info : Advanced Video Coding
Duration : 3h 40mn
Bit rate mode : Constant
Bit rate : 4 372 Kbps
Width : 1 280 pixels
Height : 720 pixels
Display aspect ratio : 16:9
Frame rate mode : Variable
Frame rate : 29.970 fps
Minimum frame rate : 25.182 fps
Maximum frame rate : 29.970 fps
Color space : YUV
Chroma subsampling : 4:2:0
Bit depth : 8 bits
Scan type : Progressive
Bits/(Pixel*Frame) : 0.158
Stream size : 6.73 GiB (97%)

Audio
ID : 2
Format : AAC
Format/Info : Advanced Audio Codec
Format profile : LC
Codec ID : 40
Duration : 3h 40mn
Bit rate mode : Variable
Bit rate : 125 Kbps
Maximum bit rate : 128 Kbps
Channel(s) : 2 channels
Channel positions : Front: L R
Sampling rate : 48.0 KHz
Compression mode : Lossy
Stream size : 198 MiB (3%)
Language : English
 

 

 

 

 

WWE Extreme Rules 2018 PPV 720p WEB HEEL mp4 Download

 

 

 

 

 

 

Uploaded By Site DX-TV.com

 

 

 

open rar file to see this password

 

 

 

 

The password : DX-TV.com

 

 

 

 

Uploaded.net + rapidgator.net

 

 

 

 

 

http://shrt10.com/wzVUnxTP
 

 
http://shrt10.com/A3hx

http://shrt10.com/SovZK
 

 
http://shrt10.com/rWbb

 

 

 

 

 

 

 

 

WWE Extreme Rules 2018 PPV 720p WEB HEEL mp4 Download