WWE Extreme Rules 2018 Kickoff 720p WEB HEEL Download

WWE Extreme Rules 2018 Kickoff 720p WEB HEEL Download

 

 

 

 


 

 

 

dx-tv.com

 

 

 

 

 

 

 
Complete name : WWE.Extreme.Rules.2018.Kickoff.720p.WEB.h264-HEEL.mp4
Format : MPEG-4
Format profile : Base Media
Codec ID : isom
File size : 1.88 GiB
Duration : 59mn 46s
Overall bit rate : 4 504 Kbps

Video
ID : 1
Format : AVC
Format/Info : Advanced Video Codec
Codec ID : avc1
Codec ID/Info : Advanced Video Coding
Duration : 59mn 46s
Bit rate mode : Constant
Bit rate : 4 372 Kbps
Width : 1 280 pixels
Height : 720 pixels
Display aspect ratio : 16:9
Frame rate mode : Variable
Frame rate : 29.970 fps
Minimum frame rate : 25.203 fps
Maximum frame rate : 29.970 fps
Color space : YUV
Chroma subsampling : 4:2:0
Bit depth : 8 bits
Scan type : Progressive
Bits/(Pixel*Frame) : 0.158
Stream size : 1.82 GiB (97%)

Audio
ID : 2
Format : AAC
Format/Info : Advanced Audio Codec
Format profile : LC
Codec ID : 40
Duration : 59mn 46s
Bit rate mode : Variable
Bit rate : 125 Kbps
Maximum bit rate : 128 Kbps
Channel(s) : 2 channels
Channel positions : Front: L R
Sampling rate : 48.0 KHz
Compression mode : Lossy
Stream size : 53.6 MiB (3%)
Language : English

 

 

 

 

 

 

 

WWE Extreme Rules 2018 Kickoff 720p WEB HEEL Download

 

 

 

 

 

 

Uploaded By Site DX-TV.com

 

 

 

open rar file to see this password

 

 

 

 

The password : DX-TV.com

 

 

 

 

Uploaded.net + rapidgator.net

 

 

 

 

 

http://shrt10.com/XOOvN

 

 

 

 
http://shrt10.com/6q5JR
 

 

 

 

 

 

 

 

 

 

 

 

WWE Extreme Rules 2018 Kickoff 720p WEB HEEL Download