WWE Evolution 2018 Kickoff 1080p WEB WD

WWE Evolution 2018 Kickoff 1080p WEB WD

 

 

 

 


 

 

 

dx-tv.com

 

 

 

Complete name : WWE.Evolution.2018.Kickoff.1080p.WEB.h264-WD.mp4
Format : MPEG-4
Format profile : Base Media
File size : 1.94 GiB
Duration : 1 h 4 min
Overall bit rate : 4 334 kb/s
Writing application : Lavf56.19.101

Video
ID : 1
Format : AVC
Format/Info : Advanced Video Codec
Codec ID/Info : Advanced Video Coding
Duration : 1 h 4 min
Bit rate : 4 201 kb/s
Width : 1 920 pixels
Height : 1 080 pixels
Display aspect ratio : 16:9
Frame rate mode : Variable
Frame rate : 30.000 FPS
Minimum frame rate : 29.126 FPS
Maximum frame rate : 30.928 FPS
Color space : YUV
Chroma subsampling : 4:2:0
Bit depth : 8 bits
Scan type : Progressive
Bits/(Pixel*Frame) : 0.068
Stream size : 1.88 GiB (97%)
Color range : Limited
Color primaries : BT.709
Transfer characteristics : BT.709
Matrix coefficients : BT.709

Audio
ID : 2
Format : AAC
Format/Info : Advanced Audio Codec
Format profile : LC
Codec ID : mp4a-40-2
Duration : 1 h 4 min
Bit rate mode : Constant
Bit rate : 125 kb/s
Channel(s) : 2 channels
Channel positions : Front: L R
Sampling rate : 48.0 kHz
Frame rate : 46.875 FPS (1024 SPF)
Compression mode : Lossy
Stream size : 57.4 MiB (3%)
Default : Yes
Alternate group : 1

 

 

 

WWE Evolution 2018 Kickoff 1080p WEB WD

 

 

 

 

Watch online

 

 

Waiting finish converting video

 

 

Server 1

 

 

 

 

 

 

 

 

 

 

 

 

 

 

 

Server 2

 

 

 

 

 

 

 

 

 

 

 

 

 

 

Uploaded By Site DX-TV.com

 

 

 

open rar file to see this password

 

 

 

 

The password : DX-TV.com

 

 

 

 

Uploaded.net + rapidgator.net

 

 

 

 

 

http://shrt10.com/GjsyYS

 

 

 
http://shrt10.com/VLEB
 

 

 

 

 

 

 

 

WWE Evolution 2018 Kickoff 1080p WEB WD

Leave a Reply

This site uses Akismet to reduce spam. Learn how your comment data is processed.