WWE Elimination Chamber 2021 Kickoff 720p DX-TV

WWE Elimination Chamber 2021 Kickoff 720p DX-TV

WWE Elimination Chamber 2021 Kickoff

 WWE Elimination Chamber 2021 Kickoff

 

 

 

Download Links with High Speed


 

Dopapk

 

 

Show Links

 

 

Nitroflare

 

 

Show Links

http://shrt10.com/kb4DE

 

 

[collapse]

 

 

Rapidgator

 

 

Show Links

 

 

Uploaded

 

 

Show Links

 

http://shrt10.com/WvRll1YeF

 

[collapse]

 

 

Watch online

 

Server 1

 

 

 

 

Elimination Chamber 2021

 

 

 

 

Server-2

 

 

 

 

watch now

 

 

Uploaded By Site DX-TV.com

 

 

Show Info This Show

 

 

Complete name : WWE.Elimination.Chamber.2021.Kickoff.720p.WEB.h264-HEEL.mp4
Format : MPEG-4
Format profile : Base Media
Codec ID : isom
File size : 1.72 GiB
Duration : 59 min 6 s
Overall bit rate mode : Variable
Overall bit rate : 4 158 kb/s
Law rating : N/A
Writing application : Lavf58.32.104

Elimination Chamber 2021

Video
ID : 1
Format : AVC
Duration : 59 min 6 s
Bit rate : 4 023 kb/s
Width : 1 280 pixels
Height : 720 pixels
Display aspect ratio : 16:9
Frame rate mode : Variable
Frame rate : 30.000 FPS
Minimum frame rate : 29.412 FPS
Maximum frame rate : 30.303 FPS
Color space : YUV
Chroma subsampling : 4:2:0
Bit depth : 8 bits
Scan type : Progressive
Bits/(Pixel*Frame) : 0.145
Stream size : 1.66 GiB (97%)
Codec configuration box : avc

Audio
ID : 2
Format : AAC LC
Format/Info : Advanced Audio
Codec ID : mp4a-40-2
Duration : 59 min 6 s
Bit rate mode : Variable
Bit rate : 125 kb/s
Maximum bit rate : 132 kb/s
Channel(s) : 2 channels
Channel layout : L R
Sampling rate : 48.0 kHz
Frame rate : 46.875 FPS (1024 SPF)
Compression mode : Lossy
Stream size : 53.0 MiB (3%)
Default : Yes
Alternate group : 1

Elimination Chamber  

Text #1
ID : 1-CC1
Format : EIA-608
Muxing mode : SCTE 128 / DTVCC Transport
Muxing mode, more info : Muxed in Video #1
Duration : 59 min 6 s
Bit rate mode : Constant
Stream size : 0.00 Byte (0%)
CaptionServiceName : CC1

Text #2
ID : 1-CC3
Format : EIA-608
Muxing mode : SCTE 128 / DTVCC Transport
Muxing mode, more info : Muxed in Video #1
Duration : 59 min 6 s
Bit rate mode : Constant
Stream size : 0.00 Byte (0%)
CaptionServiceName : CC3

Text #3
ID : 1-1
Format : EIA-708
Muxing mode : SCTE 128 / DTVCC Transport
Muxing mode, more info : Muxed in Video #1
Duration : 59 min 6 s
Bit rate mode : Constant
Stream size : 0.00 Byte (0%)

Elimination Chamber  

Text #4
ID : 1-2
Format : EIA-708
Muxing mode : SCTE 128 / DTVCC Transport
Muxing mode, more info : Muxed in Video #1
Duration : 59 min 6 s
Bit rate mode : Constant
Stream size : 0.00 Byte (0%)

Text #5
ID : 1-3
Format : EIA-708
Muxing mode : SCTE 128 / DTVCC Transport
Muxing mode, more info : Muxed in Video #1
Duration : 59 min 6 s
Bit rate mode : Constant
Stream size : 0.00 Byte (0%)

Text #6
ID : 1-4
Format : EIA-708
Muxing mode : SCTE 128 / DTVCC Transport
Muxing mode, more info : Muxed in Video #1
Duration : 59 min 6 s
Bit rate mode : Constant
Stream size : 0.00 Byte (0%)

Text #7
ID : 1-5
Format : EIA-708
Muxing mode : SCTE 128 / DTVCC Transport
Muxing mode, more info : Muxed in Video #1
Duration : 59 min 6 s
Bit rate mode : Constant
Stream size : 0.00 Byte (0%)

Elimination Chamber  

Text #8
ID : 1-6
Format : EIA-708
Muxing mode : SCTE 128 / DTVCC Transport
Muxing mode, more info : Muxed in Video #1
Duration : 59 min 6 s
Bit rate mode : Constant
Stream size : 0.00 Byte (0%)

 

 

[collapse]

 

 

https://dx-tv.com/