WWE Elimination Chamber 2021 Full Show Online 720p Star

WWE Elimination Chamber 2021 Full Show Online 720p Star DX-TV

WWE Elimination Chamber 2021 Full Show Online

 WWE Elimination Chamber 2021 Full Show Online

 

 

 

Download Links with High Speed


 

Dopapk

 

 

 

 

Nitroflare

 

 

 

 

Rapidgator

 

 

 

 

Uploaded

 

 

 

 

Watch WWE Elimination Chamber 2021 online

 

Server 1

 

 

 

 

Elimination Chamber 2021

 

 

 

 

Server-2

 

 

 

 

watch now

 

 

Uploaded By Site DX-TV.com

 

 

Show Info This Show

 

 

Complete name : WWE.Elimination.Chamber.2021.PPV.720p.HDTV.x264-Star DX-TV.mkv
Format : Matroska
Format version : Version 4
File size : 4.32 GiB
Duration : 2 h 30 min
Overall bit rate : 4 118 kb/s

Elimination Chamber 2021

Video
ID : 1
Format : AVC
Duration : 2 h 30 min
Bit rate : 4 000 kb/s
Width : 1 280 pixels
Height : 720 pixels
Display aspect ratio : 16:9
Frame rate mode : Constant
Frame rate : 29.970 (30000/1001) FPS
Color space : YUV
Chroma subsampling : 4:2:0
Bit depth : 8 bits
Scan type : Progressive
Bits/(Pixel*Frame) : 0.145
Stream size : 4.10 GiB (95%)
Forced : No
Color range : Limited
Color primaries : BT.709
Transfer characteristics : BT.709
Matrix coefficients : BT.709

 

Audio
ID : 2
Format : AC-3
Format/Info : Audio Coding 3
Commercial name : Dolby Digital
Codec ID : A_AC3
Duration : 2 h 30 min
Bit rate mode : Constant
Bit rate : 128 kb/s
Channel(s) : 2 channels
Channel layout : L R
Sampling rate : 48.0 kHz
Frame rate : 31.250 FPS
Compression mode : Lossy
Delay relative to video : -5 ms
Stream size : 137 MiB (3%)
Title : Stereo
Service kind : Complete Main
Default : Yes
Forced : No

Elimination Chamber 2021

Complete name : WWE.Elimination.Chamber.2021.PPV.HDTV.x264-Star.mp4
Format : MPEG-4
Format profile : Base Media
File size : 1.49 GiB
Duration : 2 h 30 min
Overall bit rate : 1 417 kb/s

Video
ID : 1
Format : AVC
Format/Info : Advanced Video
Duration : 2 h 30 min
Source duration : 2 h 30 min
Bit rate : 1 300 kb/s
Width : 720 pixels
Height : 480 pixels
Display aspect ratio : 16:9
Frame rate mode : Constant
Frame rate : 29.970 (30000/1001) FPS
Standard : NTSC
Color space : YUV
Chroma subsampling : 4:2:0
Bit depth : 8 bits
Scan type : Progressive
Bits/(Pixel*Frame) : 0.126
Stream size : 1.36 GiB (91%)
Source stream size : 1.36 GiB (91%)
Color range : Limited
Color primaries : BT.709
Transfer characteristics : BT.709
Matrix coefficients : BT.709
Codec configuration box : avc

Elimination Chamber 2021

Audio
ID : 2
Format : AAC LC
Format/Info : Advanced Audio
Codec ID : mp4a-40-2
Duration : 2 h 30 min
Bit rate mode : Constant
Bit rate : 112 kb/s
Channel(s) : 2 channels
Channel layout : L R
Sampling rate : 48.0 kHz
Frame rate : 46.875 FPS (1024 SPF)
Compression mode : Lossy
Stream size : 121 MiB (8%)
Title : Stereo
Default : Yes
Alternate group : 1

WWE Elimination Chamber 2021 

 

[collapse]

 

 

https://dx-tv.com/