WWE Elimination Chamber 2021 Download Free 1080p Star

WWE Elimination Chamber 2021 Download Free Full Show 1080p Star DX-TV

WWE Elimination Chamber 2021 Download Free

 WWE Elimination Chamber 2021 Download Free

 

 

 

Download Links with High Speed


Dopapk

 

 

Show Links

 

 

Nitroflare

 

 

Show Links

 

http://shrt10.com/qCkHU

 

[collapse]

 

 

Rapidgator

 

 

Show Links

 

http://shrt10.com/W8X2gdX

 

[collapse]

 

 

Uploaded

 

 

 

 

Watch online

 

Server 1

 

 

 

 

watch now

 

 

 

 

Server-2

 

 

 

 

watch now

 

 

Uploaded By Site DX-TV.com

 

 

Show Info This Show

 

 

Complete name : WWE.Elimination.Chamber.2021.PPV.1080p.HDTV.x264-Star.mkv
Format : Matroska
Format version : Version 4
File size : 8.50 GiB
Duration : 2 h 30 min
Overall bit rate : 8 106 kb/s

Elimination Chamber 2021

Video
ID : 1
Format : AVC
Format/Info : Advanced Video
Duration : 2 h 30 min
Bit rate : 8 000 kb/s
Width : 1 920 pixels
Height : 1 080 pixels
Display aspect ratio : 16:9
Frame rate mode : Constant
Frame rate : 29.970 (30000/1001) FPS
Color space : YUV
Chroma subsampling : 4:2:0
Bit depth : 8 bits
Scan type : Progressive
Bits/(Pixel*Frame) : 0.129
Stream size : 8.20 GiB (96%)
Forced : No
Color range : Limited
Color primaries : BT.709
Transfer characteristics : BT.709
Matrix coefficients : BT.709

Elimination Chamber 2021

Audio
ID : 2
Format : AC-3
Format/Info : Audio Coding 3
Commercial name : Dolby Digital
Codec ID : A_AC3
Duration : 2 h 30 min
Bit rate mode : Constant
Bit rate : 128 kb/s
Channel(s) : 2 channels
Channel layout : L R
Sampling rate : 48.0 kHz
Frame rate : 31.250 FPS (1536 SPF)
Compression mode : Lossy
Delay relative to video : -5 ms
Stream size : 137 MiB (2%)
Title : Stereo
Service kind : Complete Main
Default : Yes
Forced : No

 

Audio
ID : 2
Format : AC-3
Format/Info : Audio Coding 3
Commercial name : Dolby Digital
Codec ID : A_AC3
Duration : 2 h 30 min
Bit rate mode : Constant
Bit rate : 128 kb/s
Channel(s) : 2 channels
Channel layout : L R
Sampling rate : 48.0 kHz
Frame rate : 31.250 FPS (1536 SPF)
Compression mode : Lossy
Delay relative to video : -5 ms
Stream size : 137 MiB (2%)
Title : Stereo
Service kind : Complete Main
Default : Yes
Forced : No

 

 

Audio
ID : 2
Format : AC-3
Format/Info : Audio Coding 3
Commercial name : Dolby Digital
Codec ID : A_AC3
Duration : 2 h 30 min
Bit rate mode : Constant
Bit rate : 128 kb/s
Channel(s) : 2 channels
Channel layout : L R
Sampling rate : 48.0 kHz
Frame rate : 31.250 FPS (1536 SPF)
Compression mode : Lossy
Delay relative to video : -5 ms
Stream size : 137 MiB (2%)
Title : Stereo
Service kind : Complete Main
Default : Yes
Forced : No

 

[collapse]

 

 

https://dx-tv.com/

1 Comment

Comments are closed.