WWE Elimination Chamber 2020 PPV 1080p HDTV Star

Watch WWE Elimination Chamber 2020 PPV 1080p HDTV Star DX-TV

 

WWE

 WWE Elimination Chamber 2020

 

 

WWE Elimination Chamber 2020 PPV 1080p HDTV Star

 

 

 

Complete name : WWE.Elimination.Chamber.2020.PPV.1080p.HDTV.x264-Star.mkv
Format : Matroska
Format version : WWE
File size : 17.6 GiB
Duration : 3 h 40 min
Overall bit rate : 11.4 Mb/s
Writing library : WWE
ErrorDetectionType : Per level 1

Video
ID : 1
Format : AVC
Codec ID : WWE
Duration : 3 h 40 min
Bit rate : 11.0 Mb/s
Width : 1 920 pixels
Height : 1 080 pixels
Display aspect ratio : 16:9
Frame rate mode : WWE
Frame rate : 59.940 (60000/1001) FPS
Color space : YUV
Chroma subsampling : 4:2:0
Bit depth : 8 bits
Scan type : WWE
Bits/(Pixel*Frame) : 0.089
Stream size : 16.6 GiB (94%)
Color range : Limited
Color primaries : BT.709
Transfer characteristics : BT.709
Matrix coefficients : BT.709

Audio
ID : 2
Format : AC-3
Format/Info : Audio Coding 3
Commercial name : Dolby Digital
Codec ID : A_AC3
Duration : 3 h 40 min
Bit rate mode : Constant
Bit rate : 448 kb/s
Channel(s) : 2 channels
Channel layout : L R
Sampling rate : 48.0 kHz
Frame rate : 31.250 FPS (1536 SPF)
Compression mode : Lossy
Delay relative to video : -5 ms
Stream size : 705 MiB (4%)
Title : Stereo
Service kind : WWE
Default : Yes
Forced : No

 

 

 

Watch online

 

 

Server 1

 

 

 

 

watch now

 

 

 

 

Server 2

 

 

 

watch now

 

 

 

WWE Elimination Chamber 2020 PPV 1080p HDTV Star

 

 

Uploaded By Site DX-TV.com

 

 

Download with Free Links 

 

 

1fichier.com

https://shrt10.com/13g7tIL9
https://shrt10.com/yR6pNyywI
https://shrt10.com/x7Gdto
https://shrt10.com/Pxjwnf

 

Download with premium account Links 

 

rapidgator.net

 

 

uploadgig.com

https://shrt10.com/LQkQnBf
https://shrt10.com/He3uxuma
https://shrt10.com/yGJ61Kr
https://shrt10.com/S7UrW

 

 

dx-tv.com

 

Leave a Reply

Your email address will not be published. Required fields are marked *

This site uses Akismet to reduce spam. Learn how your comment data is processed.

%d bloggers like this: