WWE Elimination Chamber 2020 PPV 1080i WEB DX-TV [95 GB]

Watch WWE Elimination Chamber 2020 PPV 1080i WEB H264 DX-TV [ 95 GB ]

WWE

 

 

 WWE Elimination Chamber 2020

 

 

WWE Elimination Chamber 2020 PPV 1080i WEB DX-TV [95 GB]

 

 

Here WE GO

This is My new Releases From Main source with 61 MB Bit rate

 

With 9 Language

 

You can Request this RSL to Download with VIP from FTP account download

 

 

Complete name : WWE Elimination Chamber 2020 PPV 1080i WEB H264 DX-TV.mpg
Format : MPEG-PS
File size : 94.9 GiB
Duration : 3 h 40 min
Overall bit rate mode : Variable
Overall bit rate : 61.7 Mb/s

Video
ID : 224 (0xE0)
Duration : 3 h 40 min
Bit rate mode : Variable
Bit rate : 57.0 Mb/s
Width : 1 920 pixels
Height : 1 080 pixels
Display aspect ratio : 16:9
Frame rate : 30.000 FPS
Color space : YUV
Chroma subsampling : 4:2:0
Bit depth : 8 bits
Scan type : Progressive
Compression mode : Lossy
Bits/(Pixel*Frame) : 0.916
Stream size : 87.7 GiB (92%)

Audio #1
ID : 192 (0xC0)
Format version : Version 1
Format profile : Layer 2
Duration : 3 h 40 min
Bit rate mode : Constant
Bit rate : 384 kb/s
Channel(s) : 2 channels
Sampling rate : 48.0 kHz
Frame rate : 41.667 FPS (1152 SPF)
Compression mode : Lossy
Delay relative to video : -4 ms
Stream size : 605 MiB (1%)

Audio #2
ID : 193 (0xC1)
Format version : Version 1
Format profile : Layer 2
Duration : 3 h 40 min
Bit rate mode : Constant
Bit rate : 384 kb/s
Channel(s) : 2 channels
Sampling rate : 48.0 kHz
Frame rate : 41.667 FPS (1152 SPF)
Compression mode : Lossy
Delay relative to video : 23 ms
Stream size : 605 MiB (1%)

Audio #3
ID : 194 (0xC2)
Format version : Version 1
Format profile : Layer 2
Duration : 3 h 40 min
Bit rate mode : Constant
Bit rate : 384 kb/s
Channel(s) : 2 channels
Sampling rate : 48.0 kHz
Frame rate : 41.667 FPS (1152 SPF)
Compression mode : Lossy
Delay relative to video : 23 ms
Stream size : 605 MiB (1%)

 

 

Watch online

 

Server 1

 

 

watch now

 

 

 

Server 2

 

 

watch now

 

 

WWE Elimination Chamber 2020 PPV 1080i WEB DX-TV [95 GB]

 

 

Uploaded By Site DX-TV.com

 

Download with premium account Links 

13 Links

nitroflare.com

https://shrt10.com/HoTtrHr
https://shrt10.com/zo8IVfr
https://shrt10.com/brNaf9nQX
https://shrt10.com/nwamzI
https://shrt10.com/hMkIl7LH
https://shrt10.com/mwm7urq
https://shrt10.com/4SZZapd
https://shrt10.com/rUSIyty
https://shrt10.com/RPX9x8fOT
https://shrt10.com/QKqt0MmRa
https://shrt10.com/NkwJ4
https://shrt10.com/1yBqIB
https://shrt10.com/k3Slk

 

 

2 Link 50 GB

rapidgator.net

https://shrt10.com/4htRUE
https://shrt10.com/YqgFBsIh

 

 

 

uploadgig.com

https://shrt10.com/VHakK
https://shrt10.com/eCYZr
https://shrt10.com/tI7fxoH
https://shrt10.com/0UMZg
https://shrt10.com/1Vj1QhL
https://shrt10.com/2TLp9MRIl
https://shrt10.com/yARWNi
https://shrt10.com/U68FIoo
https://shrt10.com/fPsXMbT
https://shrt10.com/ycNxo
https://shrt10.com/PX406
https://shrt10.com/a2BlFmjG
https://shrt10.com/4Ta06m

 

dx-tv.com

 

Leave a Reply

Your email address will not be published. Required fields are marked *

This site uses Akismet to reduce spam. Learn how your comment data is processed.

%d bloggers like this: