WWE Crown Jewel 2018 PPV 720p HDTV VERUM

WWE Crown Jewel 2018 PPV 720p HDTV VERUM

 

 

 

 


 

 

dx-tv.com

 

 

 

 

Complete name : WWE.Crown.Jewel.2018.PPV.720p.HDTV.x264-VERUM.mkv
Format : Matroska
Format version : Version 4
File size : 8.26 GiB
Duration : 4 h 13 min
Overall bit rate : 4 672 kb/s

Video
ID : 1
Format : AVC
Format/Info : Advanced Video Codec
Duration : 4 h 13 min
Bit rate : 4 323 kb/s
Width : 1 280 pixels
Height : 720 pixels
Display aspect ratio : 16:9
Frame rate mode : Constant
Frame rate : 50.000 FPS
Color space : YUV
Chroma subsampling : 4:2:0
Bit depth : 8 bits
Scan type : Progressive
Bits/(Pixel*Frame) : 0.094
Stream size : 7.64 GiB (93%)
Language : English
Default : Yes
Forced : No
Color range : Limited
Matrix coefficients : BT.709

ID : 2
Format version : Version 1
Format profile : Layer 2

Duration : 4 h 13 min
Bit rate mode : Constant
Bit rate : 256 kb/s
Channel(s) : 2 channels
Sampling rate : 48.0 kHz
Compression mode : Lossy
Stream size : 463 MiB (5%)
Language : English
Default : Yes
Forced : No

 

 

 

 

WWE Crown Jewel 2018 PPV 720p HDTV VERUM

 

 

 

 

Watch online

 

 

Waiting finish converting video

 

 

Server 1

 

 

 

 

 

 

 

 

 

 

 

Server 2

 

 

 

 

 

 

 

 

Uploaded By Site DX-TV.com

 

 

open rar file to see this password

 

 

The password : DX-TV.com

 

 

 

 

 

 

Uploaded.net + rapidgator.net

 

 

 

 

 
http://shrt10.com/ZxwxiAuU
 

 

 
http://shrt10.com/5skJQbAP
 

 

 
http://shrt10.com/aJr5C
 

 

 
http://shrt10.com/a6VnHDc

 

 

 

WWE Crown Jewel 2018 PPV 720p HDTV VERUM

Leave a Reply

This site uses Akismet to reduce spam. Learn how your comment data is processed.