WWE Clash of Champions 2020 1080p Free WWE Network

Watch WWE Clash of Champions 2020 1080p Free Download WWE Network DX-TV

 

Clash of Champions 2020

 

 Clash of Champions 2020

 

WWE Clash of Champions 2020 1080p Free Download WWE Network

 

 

Complete name : WWE Clash of Champions 2020 1080p WWE Network WEB H264 DX-TV.mp4
Format : MPEG-4
Format profile : Base Media
Codec ID : isom
File size : 9.91 GiB
Duration : 2 h 58 min
Overall bit rate : 7 951 kb/s
Movie name : Clash of Champions 2020 – 2020-09-27
Album/Performer : WWE

Clash of Champions 2020

Description : The gold rush is on as every WWE title is up for grabs, including Drew McIntyre’s

WWE Championship and Roman Reigns’ Universal Championship.
Writing application : Lavf58.25.100
Copyright : WWE
LongDescription : The gold rush is on as every WWE title is up for grabs, including .

Drew McIntyre’s WWE Championship and Roman Reigns’ Universal Championship.

Clash of Champions 2020

Video
ID : 1
Format : AVC
Duration : 2 h 58 min
Bit rate : 7 808 kb/s
Width : 1 920 pixels
Height : 1 080 pixels
Display aspect ratio : 16:9
Frame rate mode : Constant
Frame rate : 30.000 FPS
Color space : YUV
Chroma subsampling : 4:2:0
Bit depth : 8 bits
Scan type : Progressive
Bits/(Pixel*Frame) : 0.126
Stream size : 9.66 GiB (97%)
Codec configuration box : avcC

Clash of Champions 2020

Audio
ID : 2
Format : AAC LC
Format/Info : Advanced Audio  
Codec ID : mp4a-40-2
Duration : 2 h 58 min
Bit rate mode : Constant
Bit rate : 192 kb/s
Channel(s) : 2 channels
Channel layout : L R
Sampling rate : 48.0 kHz
Frame rate : 46.875 FPS (1024 SPF)
Compression mode : Lossy
Stream size : 246 MiB (2%)
Default : Yes
Alternate group : 1
Menus : 3

Clash of Champions 2020

Menu #1
ID : 3
Codec ID : text
Duration : 2 h 58 min
Language : English
Menu For : 1,2
00:00:00.000 : AJ Styles vs Sami Zayn vs Jeff Hardy
00:26:37.463 : Jeff Hardy hits a huge Swanton Bomb
00:44:02.707 : Zelina Vega vs Asuka: Raw Women’s Title
00:59:12.916 : Apollo Crews vs Bobby Lashley: U.S. Title
01:13:30.706 : Andrade & Garza vs Street Profits: Tag Title
01:31:17.238 : Bayley vs Asuka: SmackDown Women’s Title
01:39:07.175 : Sasha Banks gets her revenge on Bayley
01:48:24.898 : Orton vs McIntyre: WWE Title Ambulance Match
02:26:46.998 : Jey Uso vs Roman Reigns: Universal Title

Clash of Champions 2020

Menu #2
00:04:10.884 : AJ Styles vs Sami Zayn vs Jeff Hardy
00:26:37.463 : Jeff Hardy hits a huge Swanton Bomb
00:44:02.707 : Zelina Vega vs Asuka: Raw Women’s Title
00:59:12.916 : Apollo Crews vs Bobby Lashley: U.S. Title
01:13:30.706 : Andrade & Garza vs Street Profits: Tag Title
01:31:17.238 : Bayley vs Asuka: SmackDown Women’s Title
01:39:07.175 : Sasha Banks gets her revenge on Bayley
01:48:24.898 : Orton vs McIntyre: WWE Title Ambulance Match
02:26:46.998 : Jey Uso vs Roman Reigns: Universal Title

 

 

 

WWE Clash of Champions 2020 1080p Free Download WWE Network

 

 

 

 

Watch online

 

 

 

 

 

Server 1

 

 

 

 

watch now

 

 

 

 

Server-2

 

 

 

watch now

 

 

 

 

Server-3

 

 

 

Clash of Champions 2020

 

 

 

 

Uploaded By Site DX-TV.com

 

 

 

 

Download Free Links with normal and high Speed [ more 15 hosts ]  

 

 

 

 

http://shrt10.com/6zOgXj
http://shrt10.com/QJygb

 

 

 

Download Links with premium High Speed   

 

 

 

 

 

 

nitroflare.com

 

 

 

rapidgator.net

 

 

 

uploadgig.com

 

 

 

 

 

dx-tv.com

 

urlfree.net

Leave a Reply

Your email address will not be published. Required fields are marked *

This site uses Akismet to reduce spam. Learn how your comment data is processed.