WWE Best Of Luke Harper 1080p DX-TV

WWE Best Of Luke Harper 1080p DX-TV

WWE Best Of Luke Harper

 WWE Best Of Luke Harper

 

Download Links with premium High Speed   

 

 

dropapk.to

http://shrt10.com/z74b9T

 

 

nitroflare.com

http://shrt10.com/Fdkgzv4vm
http://shrt10.com/2BZev7p

 

 

rapidgator.net

http://shrt10.com/2BZev7p
http://shrt10.com/D0vc52

 

 

uploaded.net

http://shrt10.com/O0b9ih03

 

 

uploadgig.com

http://shrt10.com/riDx65XfU
http://shrt10.com/jayitX9f5

 

Watch WWE Best Of Luke Harper online

 

Server 1

 

 

 

 

WWE Best Of Luke Harper

 

 

 

 

Server-2

 

 

 

 

watch now

 

 

Uploaded By Site DX-TV.com

 

 

Complete name : WWE.The.Best.Of.WWE.E62.Best.Of.Luke.Harper.1080p.WEB.h264-HEEL.mp4
Format : MPEG-4
Format profile : Base Media
Codec ID : isom
File size : 11.8 GiB
Duration : 3 h 33 min
Overall bit rate mode : Variable
Overall bit rate : 7 953 kb/s
Writing application : Lavf58.32.104

WWE Best Of Luke Harper

Video
ID : 1
Format : AVC
Codec ID/Info : Advanced Video
Duration : 3 h 33 min
Bit rate : 7 808 kb/s
Width : 1 920 pixels
Height : 1 080 pixels
Display aspect ratio : 16:9
Frame rate mode : Constant
Frame rate : 30.000 FPS
Color space : YUV
Chroma subsampling : 4:2:0
Bit depth : 8 bits
Scan type : Progressive
Bits/(Pixel*Frame) : 0.126
Stream size : 11.5 GiB (97%)

WWE Best Of  

Audio
ID : 2
Format : AAC LC
Format/Info : Advanced Audio
Codec ID : mp4a-40-2
Duration : 3 h 33 min
Bit rate mode : Constant
Bit rate : 192 kb/s
Channel(s) : 2 channels
Channel layout : L R
Sampling rate : 48.0 kHz
Frame rate : 46.875 FPS (1024 SPF)
Compression mode : Lossy
Stream size : 293 MiB (2%)
Default : Yes
Alternate group : 1

WWE Best Of  

Text
ID : 3
Format : Timed Text
Muxing mode : sbtl
Codec ID : tx3g
Duration : 3 h 32 min
Bit rate mode : Variable
Bit rate : 102 b/s
Stream size : 159 KiB (0%)
Language : English
Default : Yes
Forced : No
Alternate group : 3

 

 

https://dx-tv.com/

You May Also Like