WWE Best Moments OF 2020 1080p Full Show Online

Watch WWE Best Moments OF 2020 1080p Full Show Online DX-TV

 

WWE Best Moments OF 2020

 

 WWE Best Moments OF 2020

 

 Best Moments OF 2020 1080p Full Show Online

 

 

Complete name : WWE.Best.Moments.OF.2020.1080p.HDTV DX-TV.COM.mp4
Format : MPEG-4
Format profile : Base Media
Codec ID : isom
File size : 3.66 GiB
Duration : 42 min 12 s
Overall bit rate : 12.4 Mb/s
Writing application : Lavf56. 

WWE Best Moments OF 2020

Video
ID : 1
Format : AVC
Duration : 42 min 12 s
Bit rate : 12.0 Mb/s
Width : 1 920 pixels
Height : 1 080 pixels
Display aspect ratio : 16:9
Frame rate mode : Constant
Frame rate : 60.000 FPS
Color space : YUV
Chroma subsampling : 4:2:0
Bit depth : 8 bits
Scan type : Progressive
Bits/(Pixel*Frame) : 0.096
Stream size : 3.56 GiB (97%)
Writing library : x264 core 142
Codec configuration box : avcC

WWE Best Moments OF 2020

Audio
ID : 2
Format : AC-3
Format/Info : Audio Coding 3
Commercial name : Dolby Digital
Codec ID : ac-3
Duration : 42 min 12 s
Bit rate mode : Constant
Bit rate : 320 kb/s
Channel(s) : 6 channels
Channel layout : L R C LFE Ls Rs
Sampling rate : 48.0 kHz
Frame rate : 31.250 FPS (1536 SPF)
Compression mode : Lossy
Stream size : 96.6 MiB (3%)
Language : English
Service kind : Complete Main
Default : Yes
Alternate group : 1

 Best Moments OF 2020

WWE brings all the action of the squared circle to FOX today with a special presentation of “The Best Moments of 2020,” alongside the NFL’s hard-hitting lineup.

The FOX special will feature a collection of the past year’s best matches and moments from The Undertaker, Universal Champion Roman Reigns, WWE Champion Drew McIntyre, John Cena, Raw Woman’s Champion Asuka, SmackDown Women’s Champion Bayley, Raw Tag Team Champions The Street Profits, Sasha Banks, The Fiend, AJ Styles, Randy Orton, Edge, Seth Rollins, Braun Strowman and Matt Riddle.

Check your local listings and don’t miss a moment of the action when WWE looks back on the best moments of 2020 on FOX

 

 Best Moments OF 2020 1080p Full Show Online

 

 

 

 

Watch online

 

 

 

 

 

Server 1

 

 

 

 

watch now

 

 

 

 

Server-2

 

 

 

WWE Best Moments OF 2020

 

 

 

 

Server-3

 

 

 

watch now

 

 

 

 

Uploaded By Site DX-TV.com

 

 

 

 

Download Free Links with normal and high Speed [ more 14 hosts ]  

 

 

 

http://shrt10.com/0MSqwB1dM
http://shrt10.com/Wg7666G9
http://shrt10.com/dtAhy
http://shrt10.com/HXb7TH
http://shrt10.com/JAbQf7
http://shrt10.com/0Mlpo3
http://shrt10.com/YsSKbQk
http://shrt10.com/Bl1HhqSC1
http://shrt10.com/wzlJPFVMV

 

 

 

 

Download Links with premium High Speed   

 

 

 

dropapk.to

 

 

 

nitroflare.com

 

 

 

rapidgator.net

 

 

 

uploaded.net

 

 

 

uploadgig.com

 

 

 

 

 

dx-tv.com

 

urlfree.net

Leave a Reply

Your email address will not be published. Required fields are marked *

This site uses Akismet to reduce spam. Learn how your comment data is processed.