WWE Backstage Online 27 May 2020 720p

Watch WWE Backstage 2020 05 27 720p WEB HEEL DX-TV

 

WWE

 WWE Backstage
 

 

WWE Backstage Online 27 May 2020 720p

 

 

Complete name : WWE.Backstage.2020.05.27.720p.WEB.h264-HEEL.mp4
Format : MPEG-4
Format profile : Base Media
Codec ID : WWE
File size : 2.04 GiB
Duration : 44 min 11 s
Overall bit rate mode : Constant
Overall bit rate : 6 602 kb/s
Writing application : Lavf58.32.104

Video
ID : 1
Format : AVC
Format/Info : WWE
Duration : 44 min 11 s
Bit rate mode : Constant
Bit rate : 6 464 kb/s
Width : 1 280 pixels
Height : 720 pixels
Display aspect ratio : 16:9
Frame rate mode : Variable
Frame rate : 59.940 (60000/1001) FPS
Maximum frame rate : 60.443 FPS
Standard : Component
Color space : YUV
Chroma subsampling : 4:2:0
Bit depth : 8 bits
Scan type : Progressive
Bits/(Pixel*Frame) : 0.117
Stream size : 1.99 GiB (98%)
Color range : Limited
Color primaries : BT.709
Transfer characteristics : WWE
Matrix coefficients : BT.709
Codec configuration box : avcC

Audio
ID : 2
Format : AAC LC
Format/Info : WWE
Codec ID : mp4a-40-2
Duration : 44 min 11 s
Bit rate mode : Constant
Bit rate : 125 kb/s
Channel(s) : 2 channels
Channel layout : L R
Sampling rate : 48.0 kHz
Frame rate : 46.875 FPS (1024 SPF)
Compression mode : Lossy
Stream size : 39.6 MiB (2%)
Default : Yes
Alternate group : 1

Text #1
ID : 1-CC1
Format : EIA-608
Muxing mode : WWE
Muxing mode, more info : Muxed in Video #1
Duration : 44 min 11 s
Bit rate mode : Constant
Stream size : 0.00 Byte (0%)
CaptionServiceName : CC1

Text #2
ID : 1-1
Format : EIA-708
Muxing mode : WWE
Muxing mode, more info : Muxed in Video #1
Duration : 44 min 11 s
Bit rate mode : Constant
Stream size : 0.00 Byte (0%)

 

 

 

Watch online

 

 

Server 1

 

 

 

 

watch now

 

 

 

 

Server 2

 

 

 

watch now

 

 

 

WWE Backstage Online 27 May 2020 720p

 

 

Uploaded By Site DX-TV.com

 

 

 

Download with premium account LinksĀ 

 

 

Keep2Share

 

 

nitroflare.com

 

 

rapidgator.net

 

 

uploadgig.com

 

 

 

dx-tv.com

 

urlfree.net

You May Also Like