WWE Backlash 2018 PPV 720p HDTV Ebi Watch /Download

WWE Backlash 2018 PPV 720p HDTV Ebi Watch /Download

 

 

 

 

 

 

dx-tv

 

 

 

 

 

 

 

Complete name : WWE.Backlash.2018.PPV.720p.HDTV.x264-Ebi.mp4
Format : MPEG-4
Format profile : Base Media / Version 2
Codec ID : mp42
File size : 6.80 GiB
Duration : 3h 27mn
Overall bit rate : 4 689 Kbps
Encoded date : UTC 2018-05-07 06:12:07
Tagged date : UTC 2018-05-07 06:12:07

Video
ID : 1
Format : AVC
Format/Info : Advanced Video Codec
Codec ID : avc1
Codec ID/Info : Advanced Video Coding
Duration : 3h 27mn
Bit rate mode : Variable
Bit rate : 4 500 Kbps
Width : 1 280 pixels
Height : 720 pixels
Display aspect ratio : 16:9
Frame rate mode : Constant
Frame rate : 29.970 fps
Color space : YUV
Chroma subsampling : 4:2:0
Bit depth : 8 bits
Scan type : Progressive
Bits/(Pixel*Frame) : 0.163
Stream size : 6.51 GiB (96%)

Audio
ID : 2
Format : AAC
Format/Info : Advanced Audio Codec
Format profile : LC
Codec ID : 40
Duration : 3h 27mn
Bit rate mode : Variable
Bit rate : 192 Kbps
Channel(s) : 2 channels
Channel positions : Front: L R
Sampling rate : 48.0 KHz
Compression mode : Lossy
Stream size : 285 MiB (4%)
Title : Stereo
Encoded date : UTC 2018-05-07 06:12:07
Tagged date : UTC 2018-05-07 06:12:07

 

 

 

 

 

 

 

 

 

 

 

WWE Backlash 2018 PPV 720p HDTV Ebi Watch /Download

 

 

 

 

Watch online

 

 

Waiting finish converting video

 

 

Server 1

 

 

 

 

 

 

 

 

 

 

 

 

 

 

 

 

 

 

 

 

Server 2

 

 

 

 

 

 

 

 

 

 

 

 

 

 

 

 

 

Uploaded By Site DX-TV.com

 

 

 

open rar file to see this password

 

 

 

 

The password is : DX-TV.com

 

 

 

 

720p

 

 

 

 

 

Uploaded.net + rapidgator.net

 

 

 

 

 

 

http://shrt10.com/LEs8G9

 

 

 

 

http://shrt10.com/Amz2Fd

 

 

 

 

http://shrt10.com/9TiAQl

 

 

 

 

http://shrt10.com/ALWBl

 

 

 

 

 

 

 

 

 

 

 

 

 

WWE Backlash 2018 PPV 720p HDTV Ebi Watch /Download