WWE Backlash 2018 PPV 1080p HDTV Ebi Download

WWE Backlash 2018 PPV 1080p HDTV Ebi Download

 

 

 

 

 

 

 

 

 

dx-tv.com

 

 

 

 

 

 

Complete name : WWE.Backlash.2018.PPV.1080p.HDTV.x264-Ebi.mp4
Format : MPEG-4
Format profile : Base Media / Version 2
Codec ID : mp42
File size : 12.6 GiB
Duration : 3h 27mn
Overall bit rate : 8 713 Kbps
Encoded date : UTC 2018-05-07 10:24:10
Tagged date : UTC 2018-05-07 10:24:10

Video
ID : 1
Format : AVC
Format/Info : Advanced Video Codec
Codec ID : avc1
Codec ID/Info : Advanced Video Coding
Duration : 3h 27mn
Bit rate mode : Variable
Bit rate : 8 500 Kbps
Width : 1 920 pixels
Height : 1 080 pixels
Display aspect ratio : 16:9
Frame rate mode : Constant
Frame rate : 29.970 fps
Color space : YUV
Chroma subsampling : 4:2:0
Bit depth : 8 bits
Scan type : Progressive
Bits/(Pixel*Frame) : 0.137
Stream size : 12.3 GiB (97%)

Audio
ID : 2
Format : AAC
Format/Info : Advanced Audio Codec
Format profile : LC
Codec ID : 40
Duration : 3h 27mn
Bit rate mode : Variable
Bit rate : 224 Kbps
Channel(s) : 2 channels
Channel positions : Front: L R
Sampling rate : 48.0 KHz
Compression mode : Lossy
Stream size : 333 MiB (3%)
Title : Stereo
Encoded date : UTC 2018-05-07 10:24:10
Tagged date : UTC 2018-05-07 10:24:10

 

 

 

 

 

 

 

WWE Backlash 2018 PPV 1080p HDTV Ebi Download

 

 

 

 

 

 

 

Uploaded By Site DX-TV.com

 

 

 

open rar file to see this password

 

 

 

 

The password is : DX-TV.com

 

 

 

 

1080p

 

 

 

 

 

Uploaded.net + rapidgator.net

 

 

 

 

http://shrt10.com/WPO29Ju
 

 

 

http://shrt10.com/eVdeu5f
 

 

 

http://shrt10.com/48OVsS8
 

 

 

http://shrt10.com/O6mEpkr
 

 

 

http://shrt10.com/VLw5Pdhq
 

 

 

http://shrt10.com/yVKEO
 

 

 

http://shrt10.com/JV709z
 

 

 

http://shrt10.com/s5FD3K6
 

 

 

 

 

 

WWE Backlash 2018 PPV 1080p HDTV Ebi Download