WWE 24 07 2020 Smackdown Free Online

Watch WWE Smackdown Free 24 07 2020 HDTV Star DX-TV

 

WWE Smackdown Free Online
WWE Smackdown Free Online

 

WWE 24 07 2020 Smackdown Free Online

 

 

 

Complete name : WWE.Smackdown.2020.07.17.HDTV.x264-Star.mp4
Format : MPEG-4
Format profile : Base Media
Codec ID : mp42 WWE Smackdown Free Online
File size : 1.46 GiB
Duration : 1 h 27 min
Overall bit rate : 2 376 kb/s

WWE 24 07 2020 Smackdown Free Online

Video
ID : 1 WWE Smackdown Free Online
Format : AVC
Duration : 1 h 27 min
Bit rate : 2 000 kb/s
Width : 720 pixels
Height : 480 pixels
Display aspect ratio : 16:9
Original display aspect rat : 16:9
Frame rate mode : Variable
Frame rate : 59.940 (60000/1001) FPS
frame rate : 59.920 FPS
Maximum frame rate : 59.960 FPS
Color space : YUV
Chroma sub sampling : 4:2:0
Bit depth : 8 bits
Scan type : Progressive
Bits/(Pixel*Frame) : 0.097
Stream size : 1.21 GiB (83%)
Color range : Limited WWE Smackdown Free Online
Color primaries : BT.601 NTSC
Transfer characteristics : BT.709
Matrix coefficients : BT.601
Codec configuration box : avcC

WWE 24 07 2020 Smackdown Free Online

Audio
ID : 2
Format : AAC LC
Format/Info : Advanced
Codec ID : mp4a-40-2
Duration : 1 h 27 min
Bit rate mode : Constant
Bit rate : 384 kb/s
Channel(s) : 2 channels
Channel layout : L R WWE Smackdown Free Online
Sampling rate : 48.0 kHz
Frame rate : 46.875 FPS (1024 SPF)
Compression mode : Lossy
Stream size : 240 MiB (16%)
Title : Stereo
Default : Yes
Alternate group : 1

 24 07 2020 Smackdown Free Online

Matt Riddle def. Tony Nese

 

After falling short in his first blue brand title opportunity when he challenged AJ Styles for the Intercontinental Championship, WWE Smackdown Free Online

Matt Riddle got back on track against Tony Nese. The Original Bro came out as the aggressor,

showing off his strength in an efficient win over The Premier Athlete. WWE Smackdown Free Online

After the final bell, Riddle called out King Corbin in an attempt to stand up to the blue brand bully after last week’s attack.

Corbin responded by offering a King’s Ransom to anyone who could show the newcomer that he doesn’t belong on SmackDown.

Nese tried to cash in, but Riddle was ready for him. Who will be the next Superstar to take up Corbin’s offer? 

 

WWE 24 07 2020 Smackdown Free Online

 

 

 

Watch online

 

 

Server 1

 

 

 

 

watch now

 

 

 

 

Server 2

 

 

 

watch now

 

 

 

Server-3

 

 

 

WWE Smackdown Free Online

 

 

 

Uploaded By Site DX-TV.com

 

 

 

Download with premium account Links 

 

 

Keep2Share

 

 

nitroflare.com

 

 

rapidgator.net

 

 

uploadgig.com

 

 

 

dx-tv.com

 

urlfree.net

Leave a Reply

Your email address will not be published. Required fields are marked *

This site uses Akismet to reduce spam. Learn how your comment data is processed.