WWE 205 Live 2021 08 13 1080p Online Free Replay

WWE 205 Live 2021 08 13 1080p Online Free Replay DX-TV

Contents show

WWE 205 Live

 WWE 205 Live

 

 

 

Download Links with premium High Speed


Dopapk

 

 

Show Links

 

http://shrt10.com/u20HsBgI

 

[collapse]

 

 

Nitroflare

 

 

Show Links

 

http://shrt10.com/c95Ce4FL

 

[collapse]

 

 

Rapidgator

 

 

Show Links

 

http://shrt10.com/gX8Oa

 

[collapse]

 

 

Uploaded

 

 

Show Links

 

http://shrt10.com/yYnhh

 

[collapse]

 

 

Watch online

 

Server 1

 

 

 

 

watch now

 

 

 

 

Server-2

 

 

 

 

WWE 205 Live

 

 

 

|Server-3

 

 

 

 

watch now

 

 

Uploaded By Site DX-TV.com

 

 

Show Info This Show

WWE 205 Live

 

Complete name : WWE.205.Live.2021.08.13.1080p.WEB.h264-HEEL.mp4
Format : MPEG-4
Format profile : Base Media
Codec ID : isom
File size : 1.47 GiB
Duration : 26 min 42 s
Overall bit rate mode : Variable
Overall bit rate : 7 905 kb/s

Video
ID : 1
Format : AVC
Format/Info : Advanced Video
Duration : 26 min 42 s
Bit rate : 7 808 kb/s
Width : 1 920 pixels
Height : 1 080 pixels
Display aspect ratio : 16:9
Frame rate mode : Constant
Frame rate : 30.000 FPS
Color space : YUV
Chroma subsampling : 4:2:0
Bit depth : 8 bits
Scan type : Progressive
Bits/(Pixel*Frame) : 0.126
Stream size : 1.44 GiB (97%)

WWE 205 Live

Audio
ID : 2
Format : AAC LC
Format/Info : Advanced Audio
Codec ID : mp4a-40-2
Duration : 26 min 41 s
Bit rate mode : Constant
Bit rate : 192 kb/s
Channel(s) : 2 channels
Channel layout : L R
Sampling rate : 48.0 kHz
Frame rate : 46.875 FPS (1024 SPF)
Compression mode : Lossy
Stream size : 36.8 MiB (2%)
Default : Yes
Alternate group : 1

WWE 205 Live

Text
ID : 3
Format : Timed Text
Muxing mode : sbtl
Codec ID : tx3g
Duration : 26 min 35 s
Bit rate mode : Variable
Bit rate : 113 b/s
Stream size : 22.0 KiB (0%)
Language : English
Default : Yes
Forced : No
Alternate group : 3

WWE 205 Live

Complete name : WWE.205.Live.2021.08.13.1080p.WEB.h264-HEEL.mp4
Format : MPEG-4
Format profile : Base Media
Codec ID : isom
File size : 1.47 GiB
Duration : 26 min 42 s
Overall bit rate mode : Variable
Overall bit rate : 7 905 kb/s

Video
ID : 1
Format : AVC
Format/Info : Advanced Video
Duration : 26 min 42 s
Bit rate : 7 808 kb/s
Width : 1 920 pixels
Height : 1 080 pixels
Display aspect ratio : 16:9
Frame rate mode : Constant
Frame rate : 30.000 FPS
Color space : YUV
Chroma subsampling : 4:2:0
Bit depth : 8 bits
Scan type : Progressive
Bits/(Pixel*Frame) : 0.126
Stream size : 1.44 GiB (97%)

WWE 205 Live

Audio
ID : 2
Format : AAC LC
Format/Info : Advanced Audio
Codec ID : mp4a-40-2
Duration : 26 min 41 s
Bit rate mode : Constant
Bit rate : 192 kb/s
Channel(s) : 2 channels
Channel layout : L R
Sampling rate : 48.0 kHz
Frame rate : 46.875 FPS (1024 SPF)
Compression mode : Lossy
Stream size : 36.8 MiB (2%)
Default : Yes
Alternate group : 1

WWE 205 Live

Text
ID : 3
Format : Timed Text
Muxing mode : sbtl
Codec ID : tx3g
Duration : 26 min 35 s
Bit rate mode : Variable
Bit rate : 113 b/s
Stream size : 22.0 KiB (0%)
Language : English
Default : Yes
Forced : No
Alternate group : 3

WWE 205 Live

Complete name : WWE.205.Live.2021.08.13.1080p.WEB.h264-HEEL.mp4
Format : MPEG-4
Format profile : Base Media
Codec ID : isom
File size : 1.47 GiB
Duration : 26 min 42 s
Overall bit rate mode : Variable
Overall bit rate : 7 905 kb/s

Video
ID : 1
Format : AVC
Format/Info : Advanced Video
Duration : 26 min 42 s
Bit rate : 7 808 kb/s
Width : 1 920 pixels
Height : 1 080 pixels
Display aspect ratio : 16:9
Frame rate mode : Constant
Frame rate : 30.000 FPS
Color space : YUV
Chroma subsampling : 4:2:0
Bit depth : 8 bits
Scan type : Progressive
Bits/(Pixel*Frame) : 0.126
Stream size : 1.44 GiB (97%)

WWE 205 Live

Audio
ID : 2
Format : AAC LC
Format/Info : Advanced Audio
Codec ID : mp4a-40-2
Duration : 26 min 41 s
Bit rate mode : Constant
Bit rate : 192 kb/s
Channel(s) : 2 channels
Channel layout : L R
Sampling rate : 48.0 kHz
Frame rate : 46.875 FPS (1024 SPF)
Compression mode : Lossy
Stream size : 36.8 MiB (2%)
Default : Yes
Alternate group : 1

WWE 205 Live

Text
ID : 3
Format : Timed Text
Muxing mode : sbtl
Codec ID : tx3g
Duration : 26 min 35 s
Bit rate mode : Variable
Bit rate : 113 b/s
Stream size : 22.0 KiB (0%)
Language : English
Default : Yes
Forced : No
Alternate group : 3

WWE 205 Live

Complete name : WWE.205.Live.2021.08.13.1080p.WEB.h264-HEEL.mp4
Format : MPEG-4
Format profile : Base Media
Codec ID : isom
File size : 1.47 GiB
Duration : 26 min 42 s
Overall bit rate mode : Variable
Overall bit rate : 7 905 kb/s

Video
ID : 1
Format : AVC
Format/Info : Advanced Video
Duration : 26 min 42 s
Bit rate : 7 808 kb/s
Width : 1 920 pixels
Height : 1 080 pixels
Display aspect ratio : 16:9
Frame rate mode : Constant
Frame rate : 30.000 FPS
Color space : YUV
Chroma subsampling : 4:2:0
Bit depth : 8 bits
Scan type : Progressive
Bits/(Pixel*Frame) : 0.126
Stream size : 1.44 GiB (97%)

WWE 205 Live

Audio
ID : 2
Format : AAC LC
Format/Info : Advanced Audio
Codec ID : mp4a-40-2
Duration : 26 min 41 s
Bit rate mode : Constant
Bit rate : 192 kb/s
Channel(s) : 2 channels
Channel layout : L R
Sampling rate : 48.0 kHz
Frame rate : 46.875 FPS (1024 SPF)
Compression mode : Lossy
Stream size : 36.8 MiB (2%)
Default : Yes
Alternate group : 1

WWE 205 Live

Text
ID : 3
Format : Timed Text
Muxing mode : sbtl
Codec ID : tx3g
Duration : 26 min 35 s
Bit rate mode : Variable
Bit rate : 113 b/s
Stream size : 22.0 KiB (0%)
Language : English
Default : Yes
Forced : No
Alternate group : 3

WWE 205 Live

Complete name : WWE.205.Live.2021.08.13.1080p.WEB.h264-HEEL.mp4
Format : MPEG-4
Format profile : Base Media
Codec ID : isom
File size : 1.47 GiB
Duration : 26 min 42 s
Overall bit rate mode : Variable
Overall bit rate : 7 905 kb/s

Video
ID : 1
Format : AVC
Format/Info : Advanced Video
Duration : 26 min 42 s
Bit rate : 7 808 kb/s
Width : 1 920 pixels
Height : 1 080 pixels
Display aspect ratio : 16:9
Frame rate mode : Constant
Frame rate : 30.000 FPS
Color space : YUV
Chroma subsampling : 4:2:0
Bit depth : 8 bits
Scan type : Progressive
Bits/(Pixel*Frame) : 0.126
Stream size : 1.44 GiB (97%)

WWE 205 Live

Audio
ID : 2
Format : AAC LC
Format/Info : Advanced Audio
Codec ID : mp4a-40-2
Duration : 26 min 41 s
Bit rate mode : Constant
Bit rate : 192 kb/s
Channel(s) : 2 channels
Channel layout : L R
Sampling rate : 48.0 kHz
Frame rate : 46.875 FPS (1024 SPF)
Compression mode : Lossy
Stream size : 36.8 MiB (2%)
Default : Yes
Alternate group : 1

WWE 205 Live

Text
ID : 3
Format : Timed Text
Muxing mode : sbtl
Codec ID : tx3g
Duration : 26 min 35 s
Bit rate mode : Variable
Bit rate : 113 b/s
Stream size : 22.0 KiB (0%)
Language : English
Default : Yes
Forced : No
Alternate group : 3

WWE 205 Live

Complete name : WWE.205.Live.2021.08.13.1080p.WEB.h264-HEEL.mp4
Format : MPEG-4
Format profile : Base Media
Codec ID : isom
File size : 1.47 GiB
Duration : 26 min 42 s
Overall bit rate mode : Variable
Overall bit rate : 7 905 kb/s

Video
ID : 1
Format : AVC
Format/Info : Advanced Video
Duration : 26 min 42 s
Bit rate : 7 808 kb/s
Width : 1 920 pixels
Height : 1 080 pixels
Display aspect ratio : 16:9
Frame rate mode : Constant
Frame rate : 30.000 FPS
Color space : YUV
Chroma subsampling : 4:2:0
Bit depth : 8 bits
Scan type : Progressive
Bits/(Pixel*Frame) : 0.126
Stream size : 1.44 GiB (97%)

WWE 205 Live

Audio
ID : 2
Format : AAC LC
Format/Info : Advanced Audio
Codec ID : mp4a-40-2
Duration : 26 min 41 s
Bit rate mode : Constant
Bit rate : 192 kb/s
Channel(s) : 2 channels
Channel layout : L R
Sampling rate : 48.0 kHz
Frame rate : 46.875 FPS (1024 SPF)
Compression mode : Lossy
Stream size : 36.8 MiB (2%)
Default : Yes
Alternate group : 1

WWE 205 Live

Text
ID : 3
Format : Timed Text
Muxing mode : sbtl
Codec ID : tx3g
Duration : 26 min 35 s
Bit rate mode : Variable
Bit rate : 113 b/s
Stream size : 22.0 KiB (0%)
Language : English
Default : Yes
Forced : No
Alternate group : 3

WWE 205 Live

Complete name : WWE.205.Live.2021.08.13.1080p.WEB.h264-HEEL.mp4
Format : MPEG-4
Format profile : Base Media
Codec ID : isom
File size : 1.47 GiB
Duration : 26 min 42 s
Overall bit rate mode : Variable
Overall bit rate : 7 905 kb/s

Video
ID : 1
Format : AVC
Format/Info : Advanced Video
Duration : 26 min 42 s
Bit rate : 7 808 kb/s
Width : 1 920 pixels
Height : 1 080 pixels
Display aspect ratio : 16:9
Frame rate mode : Constant
Frame rate : 30.000 FPS
Color space : YUV
Chroma subsampling : 4:2:0
Bit depth : 8 bits
Scan type : Progressive
Bits/(Pixel*Frame) : 0.126
Stream size : 1.44 GiB (97%)

WWE 205 Live

Audio
ID : 2
Format : AAC LC
Format/Info : Advanced Audio
Codec ID : mp4a-40-2
Duration : 26 min 41 s
Bit rate mode : Constant
Bit rate : 192 kb/s
Channel(s) : 2 channels
Channel layout : L R
Sampling rate : 48.0 kHz
Frame rate : 46.875 FPS (1024 SPF)
Compression mode : Lossy
Stream size : 36.8 MiB (2%)
Default : Yes
Alternate group : 1

WWE 205 Live

Text
ID : 3
Format : Timed Text
Muxing mode : sbtl
Codec ID : tx3g
Duration : 26 min 35 s
Bit rate mode : Variable
Bit rate : 113 b/s
Stream size : 22.0 KiB (0%)
Language : English
Default : Yes
Forced : No
Alternate group : 3

WWE 205 Live

Complete name : WWE.205.Live.2021.08.13.1080p.WEB.h264-HEEL.mp4
Format : MPEG-4
Format profile : Base Media
Codec ID : isom
File size : 1.47 GiB
Duration : 26 min 42 s
Overall bit rate mode : Variable
Overall bit rate : 7 905 kb/s

Video
ID : 1
Format : AVC
Format/Info : Advanced Video
Duration : 26 min 42 s
Bit rate : 7 808 kb/s
Width : 1 920 pixels
Height : 1 080 pixels
Display aspect ratio : 16:9
Frame rate mode : Constant
Frame rate : 30.000 FPS
Color space : YUV
Chroma subsampling : 4:2:0
Bit depth : 8 bits
Scan type : Progressive
Bits/(Pixel*Frame) : 0.126
Stream size : 1.44 GiB (97%)

WWE 205 Live

Audio
ID : 2
Format : AAC LC
Format/Info : Advanced Audio
Codec ID : mp4a-40-2
Duration : 26 min 41 s
Bit rate mode : Constant
Bit rate : 192 kb/s
Channel(s) : 2 channels
Channel layout : L R
Sampling rate : 48.0 kHz
Frame rate : 46.875 FPS (1024 SPF)
Compression mode : Lossy
Stream size : 36.8 MiB (2%)
Default : Yes
Alternate group : 1

WWE 205 Live

Text
ID : 3
Format : Timed Text
Muxing mode : sbtl
Codec ID : tx3g
Duration : 26 min 35 s
Bit rate mode : Variable
Bit rate : 113 b/s
Stream size : 22.0 KiB (0%)
Language : English
Default : Yes
Forced : No
Alternate group : 3

WWE 205 Live

Complete name : WWE.205.Live.2021.08.13.1080p.WEB.h264-HEEL.mp4
Format : MPEG-4
Format profile : Base Media
Codec ID : isom
File size : 1.47 GiB
Duration : 26 min 42 s
Overall bit rate mode : Variable
Overall bit rate : 7 905 kb/s

Video
ID : 1
Format : AVC
Format/Info : Advanced Video
Duration : 26 min 42 s
Bit rate : 7 808 kb/s
Width : 1 920 pixels
Height : 1 080 pixels
Display aspect ratio : 16:9
Frame rate mode : Constant
Frame rate : 30.000 FPS
Color space : YUV
Chroma subsampling : 4:2:0
Bit depth : 8 bits
Scan type : Progressive
Bits/(Pixel*Frame) : 0.126
Stream size : 1.44 GiB (97%)

WWE 205 Live

Audio
ID : 2
Format : AAC LC
Format/Info : Advanced Audio
Codec ID : mp4a-40-2
Duration : 26 min 41 s
Bit rate mode : Constant
Bit rate : 192 kb/s
Channel(s) : 2 channels
Channel layout : L R
Sampling rate : 48.0 kHz
Frame rate : 46.875 FPS (1024 SPF)
Compression mode : Lossy
Stream size : 36.8 MiB (2%)
Default : Yes
Alternate group : 1

WWE 205 Live

Text
ID : 3
Format : Timed Text
Muxing mode : sbtl
Codec ID : tx3g
Duration : 26 min 35 s
Bit rate mode : Variable
Bit rate : 113 b/s
Stream size : 22.0 KiB (0%)
Language : English
Default : Yes
Forced : No
Alternate group : 3

WWE 205 Live

Complete name : WWE.205.Live.2021.08.13.1080p.WEB.h264-HEEL.mp4
Format : MPEG-4
Format profile : Base Media
Codec ID : isom
File size : 1.47 GiB
Duration : 26 min 42 s
Overall bit rate mode : Variable
Overall bit rate : 7 905 kb/s

Video
ID : 1
Format : AVC
Format/Info : Advanced Video
Duration : 26 min 42 s
Bit rate : 7 808 kb/s
Width : 1 920 pixels
Height : 1 080 pixels
Display aspect ratio : 16:9
Frame rate mode : Constant
Frame rate : 30.000 FPS
Color space : YUV
Chroma subsampling : 4:2:0
Bit depth : 8 bits
Scan type : Progressive
Bits/(Pixel*Frame) : 0.126
Stream size : 1.44 GiB (97%)

WWE 205 Live

Audio
ID : 2
Format : AAC LC
Format/Info : Advanced Audio
Codec ID : mp4a-40-2
Duration : 26 min 41 s
Bit rate mode : Constant
Bit rate : 192 kb/s
Channel(s) : 2 channels
Channel layout : L R
Sampling rate : 48.0 kHz
Frame rate : 46.875 FPS (1024 SPF)
Compression mode : Lossy
Stream size : 36.8 MiB (2%)
Default : Yes
Alternate group : 1

WWE 205 Live

Text
ID : 3
Format : Timed Text
Muxing mode : sbtl
Codec ID : tx3g
Duration : 26 min 35 s
Bit rate mode : Variable
Bit rate : 113 b/s
Stream size : 22.0 KiB (0%)
Language : English
Default : Yes
Forced : No
Alternate group : 3

WWE 205 Live

Complete name : WWE.205.Live.2021.08.13.1080p.WEB.h264-HEEL.mp4
Format : MPEG-4
Format profile : Base Media
Codec ID : isom
File size : 1.47 GiB
Duration : 26 min 42 s
Overall bit rate mode : Variable
Overall bit rate : 7 905 kb/s

Video
ID : 1
Format : AVC
Format/Info : Advanced Video
Duration : 26 min 42 s
Bit rate : 7 808 kb/s
Width : 1 920 pixels
Height : 1 080 pixels
Display aspect ratio : 16:9
Frame rate mode : Constant
Frame rate : 30.000 FPS
Color space : YUV
Chroma subsampling : 4:2:0
Bit depth : 8 bits
Scan type : Progressive
Bits/(Pixel*Frame) : 0.126
Stream size : 1.44 GiB (97%)

WWE 205 Live

Audio
ID : 2
Format : AAC LC
Format/Info : Advanced Audio
Codec ID : mp4a-40-2
Duration : 26 min 41 s
Bit rate mode : Constant
Bit rate : 192 kb/s
Channel(s) : 2 channels
Channel layout : L R
Sampling rate : 48.0 kHz
Frame rate : 46.875 FPS (1024 SPF)
Compression mode : Lossy
Stream size : 36.8 MiB (2%)
Default : Yes
Alternate group : 1

WWE 205 Live

Text
ID : 3
Format : Timed Text
Muxing mode : sbtl
Codec ID : tx3g
Duration : 26 min 35 s
Bit rate mode : Variable
Bit rate : 113 b/s
Stream size : 22.0 KiB (0%)
Language : English
Default : Yes
Forced : No
Alternate group : 3

WWE 205 Live

Complete name : WWE.205.Live.2021.08.13.1080p.WEB.h264-HEEL.mp4
Format : MPEG-4
Format profile : Base Media
Codec ID : isom
File size : 1.47 GiB
Duration : 26 min 42 s
Overall bit rate mode : Variable
Overall bit rate : 7 905 kb/s

Video
ID : 1
Format : AVC
Format/Info : Advanced Video
Duration : 26 min 42 s
Bit rate : 7 808 kb/s
Width : 1 920 pixels
Height : 1 080 pixels
Display aspect ratio : 16:9
Frame rate mode : Constant
Frame rate : 30.000 FPS
Color space : YUV
Chroma subsampling : 4:2:0
Bit depth : 8 bits
Scan type : Progressive
Bits/(Pixel*Frame) : 0.126
Stream size : 1.44 GiB (97%)

WWE 205 Live

Audio
ID : 2
Format : AAC LC
Format/Info : Advanced Audio
Codec ID : mp4a-40-2
Duration : 26 min 41 s
Bit rate mode : Constant
Bit rate : 192 kb/s
Channel(s) : 2 channels
Channel layout : L R
Sampling rate : 48.0 kHz
Frame rate : 46.875 FPS (1024 SPF)
Compression mode : Lossy
Stream size : 36.8 MiB (2%)
Default : Yes
Alternate group : 1

WWE 205 Live

Text
ID : 3
Format : Timed Text
Muxing mode : sbtl
Codec ID : tx3g
Duration : 26 min 35 s
Bit rate mode : Variable
Bit rate : 113 b/s
Stream size : 22.0 KiB (0%)
Language : English
Default : Yes
Forced : No
Alternate group : 3

WWE 205 Live

Complete name : WWE.205.Live.2021.08.13.1080p.WEB.h264-HEEL.mp4
Format : MPEG-4
Format profile : Base Media
Codec ID : isom
File size : 1.47 GiB
Duration : 26 min 42 s
Overall bit rate mode : Variable
Overall bit rate : 7 905 kb/s

Video
ID : 1
Format : AVC
Format/Info : Advanced Video
Duration : 26 min 42 s
Bit rate : 7 808 kb/s
Width : 1 920 pixels
Height : 1 080 pixels
Display aspect ratio : 16:9
Frame rate mode : Constant
Frame rate : 30.000 FPS
Color space : YUV
Chroma subsampling : 4:2:0
Bit depth : 8 bits
Scan type : Progressive
Bits/(Pixel*Frame) : 0.126
Stream size : 1.44 GiB (97%)

WWE 205 Live

Audio
ID : 2
Format : AAC LC
Format/Info : Advanced Audio
Codec ID : mp4a-40-2
Duration : 26 min 41 s
Bit rate mode : Constant
Bit rate : 192 kb/s
Channel(s) : 2 channels
Channel layout : L R
Sampling rate : 48.0 kHz
Frame rate : 46.875 FPS (1024 SPF)
Compression mode : Lossy
Stream size : 36.8 MiB (2%)
Default : Yes
Alternate group : 1

WWE 205 Live

Text
ID : 3
Format : Timed Text
Muxing mode : sbtl
Codec ID : tx3g
Duration : 26 min 35 s
Bit rate mode : Variable
Bit rate : 113 b/s
Stream size : 22.0 KiB (0%)
Language : English
Default : Yes
Forced : No
Alternate group : 3

WWE 205 Live

Complete name : WWE.205.Live.2021.08.13.1080p.WEB.h264-HEEL.mp4
Format : MPEG-4
Format profile : Base Media
Codec ID : isom
File size : 1.47 GiB
Duration : 26 min 42 s
Overall bit rate mode : Variable
Overall bit rate : 7 905 kb/s

Video
ID : 1
Format : AVC
Format/Info : Advanced Video
Duration : 26 min 42 s
Bit rate : 7 808 kb/s
Width : 1 920 pixels
Height : 1 080 pixels
Display aspect ratio : 16:9
Frame rate mode : Constant
Frame rate : 30.000 FPS
Color space : YUV
Chroma subsampling : 4:2:0
Bit depth : 8 bits
Scan type : Progressive
Bits/(Pixel*Frame) : 0.126
Stream size : 1.44 GiB (97%)

WWE 205 Live

Audio
ID : 2
Format : AAC LC
Format/Info : Advanced Audio
Codec ID : mp4a-40-2
Duration : 26 min 41 s
Bit rate mode : Constant
Bit rate : 192 kb/s
Channel(s) : 2 channels
Channel layout : L R
Sampling rate : 48.0 kHz
Frame rate : 46.875 FPS (1024 SPF)
Compression mode : Lossy
Stream size : 36.8 MiB (2%)
Default : Yes
Alternate group : 1

WWE 205 Live

Text
ID : 3
Format : Timed Text
Muxing mode : sbtl
Codec ID : tx3g
Duration : 26 min 35 s
Bit rate mode : Variable
Bit rate : 113 b/s
Stream size : 22.0 KiB (0%)
Language : English
Default : Yes
Forced : No
Alternate group : 3

WWE 205 Live

Complete name : WWE.205.Live.2021.08.13.1080p.WEB.h264-HEEL.mp4
Format : MPEG-4
Format profile : Base Media
Codec ID : isom
File size : 1.47 GiB
Duration : 26 min 42 s
Overall bit rate mode : Variable
Overall bit rate : 7 905 kb/s

Video
ID : 1
Format : AVC
Format/Info : Advanced Video
Duration : 26 min 42 s
Bit rate : 7 808 kb/s
Width : 1 920 pixels
Height : 1 080 pixels
Display aspect ratio : 16:9
Frame rate mode : Constant
Frame rate : 30.000 FPS
Color space : YUV
Chroma subsampling : 4:2:0
Bit depth : 8 bits
Scan type : Progressive
Bits/(Pixel*Frame) : 0.126
Stream size : 1.44 GiB (97%)

WWE 205 Live

Audio
ID : 2
Format : AAC LC
Format/Info : Advanced Audio
Codec ID : mp4a-40-2
Duration : 26 min 41 s
Bit rate mode : Constant
Bit rate : 192 kb/s
Channel(s) : 2 channels
Channel layout : L R
Sampling rate : 48.0 kHz
Frame rate : 46.875 FPS (1024 SPF)
Compression mode : Lossy
Stream size : 36.8 MiB (2%)
Default : Yes
Alternate group : 1

WWE 205 Live

Text
ID : 3
Format : Timed Text
Muxing mode : sbtl
Codec ID : tx3g
Duration : 26 min 35 s
Bit rate mode : Variable
Bit rate : 113 b/s
Stream size : 22.0 KiB (0%)
Language : English
Default : Yes
Forced : No
Alternate group : 3

WWE 205 Live

Complete name : WWE.205.Live.2021.08.13.1080p.WEB.h264-HEEL.mp4
Format : MPEG-4
Format profile : Base Media
Codec ID : isom
File size : 1.47 GiB
Duration : 26 min 42 s
Overall bit rate mode : Variable
Overall bit rate : 7 905 kb/s

Video
ID : 1
Format : AVC
Format/Info : Advanced Video
Duration : 26 min 42 s
Bit rate : 7 808 kb/s
Width : 1 920 pixels
Height : 1 080 pixels
Display aspect ratio : 16:9
Frame rate mode : Constant
Frame rate : 30.000 FPS
Color space : YUV
Chroma subsampling : 4:2:0
Bit depth : 8 bits
Scan type : Progressive
Bits/(Pixel*Frame) : 0.126
Stream size : 1.44 GiB (97%)

WWE 205 Live

Audio
ID : 2
Format : AAC LC
Format/Info : Advanced Audio
Codec ID : mp4a-40-2
Duration : 26 min 41 s
Bit rate mode : Constant
Bit rate : 192 kb/s
Channel(s) : 2 channels
Channel layout : L R
Sampling rate : 48.0 kHz
Frame rate : 46.875 FPS (1024 SPF)
Compression mode : Lossy
Stream size : 36.8 MiB (2%)
Default : Yes
Alternate group : 1

WWE 205 Live

Text
ID : 3
Format : Timed Text
Muxing mode : sbtl
Codec ID : tx3g
Duration : 26 min 35 s
Bit rate mode : Variable
Bit rate : 113 b/s
Stream size : 22.0 KiB (0%)
Language : English
Default : Yes
Forced : No
Alternate group : 3

WWE 205 Live

Complete name : WWE.205.Live.2021.08.13.1080p.WEB.h264-HEEL.mp4
Format : MPEG-4
Format profile : Base Media
Codec ID : isom
File size : 1.47 GiB
Duration : 26 min 42 s
Overall bit rate mode : Variable
Overall bit rate : 7 905 kb/s

Video
ID : 1
Format : AVC
Format/Info : Advanced Video
Duration : 26 min 42 s
Bit rate : 7 808 kb/s
Width : 1 920 pixels
Height : 1 080 pixels
Display aspect ratio : 16:9
Frame rate mode : Constant
Frame rate : 30.000 FPS
Color space : YUV
Chroma subsampling : 4:2:0
Bit depth : 8 bits
Scan type : Progressive
Bits/(Pixel*Frame) : 0.126
Stream size : 1.44 GiB (97%)

WWE 205 Live

Audio
ID : 2
Format : AAC LC
Format/Info : Advanced Audio
Codec ID : mp4a-40-2
Duration : 26 min 41 s
Bit rate mode : Constant
Bit rate : 192 kb/s
Channel(s) : 2 channels
Channel layout : L R
Sampling rate : 48.0 kHz
Frame rate : 46.875 FPS (1024 SPF)
Compression mode : Lossy
Stream size : 36.8 MiB (2%)
Default : Yes
Alternate group : 1

WWE 205 Live

Text
ID : 3
Format : Timed Text
Muxing mode : sbtl
Codec ID : tx3g
Duration : 26 min 35 s
Bit rate mode : Variable
Bit rate : 113 b/s
Stream size : 22.0 KiB (0%)
Language : English
Default : Yes
Forced : No
Alternate group : 3

WWE 205 Live

Complete name : WWE.205.Live.2021.08.13.1080p.WEB.h264-HEEL.mp4
Format : MPEG-4
Format profile : Base Media
Codec ID : isom
File size : 1.47 GiB
Duration : 26 min 42 s
Overall bit rate mode : Variable
Overall bit rate : 7 905 kb/s

Video
ID : 1
Format : AVC
Format/Info : Advanced Video
Duration : 26 min 42 s
Bit rate : 7 808 kb/s
Width : 1 920 pixels
Height : 1 080 pixels
Display aspect ratio : 16:9
Frame rate mode : Constant
Frame rate : 30.000 FPS
Color space : YUV
Chroma subsampling : 4:2:0
Bit depth : 8 bits
Scan type : Progressive
Bits/(Pixel*Frame) : 0.126
Stream size : 1.44 GiB (97%)

WWE 205 Live

Audio
ID : 2
Format : AAC LC
Format/Info : Advanced Audio
Codec ID : mp4a-40-2
Duration : 26 min 41 s
Bit rate mode : Constant
Bit rate : 192 kb/s
Channel(s) : 2 channels
Channel layout : L R
Sampling rate : 48.0 kHz
Frame rate : 46.875 FPS (1024 SPF)
Compression mode : Lossy
Stream size : 36.8 MiB (2%)
Default : Yes
Alternate group : 1

WWE 205 Live

Text
ID : 3
Format : Timed Text
Muxing mode : sbtl
Codec ID : tx3g
Duration : 26 min 35 s
Bit rate mode : Variable
Bit rate : 113 b/s
Stream size : 22.0 KiB (0%)
Language : English
Default : Yes
Forced : No
Alternate group : 3

WWE 205 Live

Complete name : WWE.205.Live.2021.08.13.1080p.WEB.h264-HEEL.mp4
Format : MPEG-4
Format profile : Base Media
Codec ID : isom
File size : 1.47 GiB
Duration : 26 min 42 s
Overall bit rate mode : Variable
Overall bit rate : 7 905 kb/s

Video
ID : 1
Format : AVC
Format/Info : Advanced Video
Duration : 26 min 42 s
Bit rate : 7 808 kb/s
Width : 1 920 pixels
Height : 1 080 pixels
Display aspect ratio : 16:9
Frame rate mode : Constant
Frame rate : 30.000 FPS
Color space : YUV
Chroma subsampling : 4:2:0
Bit depth : 8 bits
Scan type : Progressive
Bits/(Pixel*Frame) : 0.126
Stream size : 1.44 GiB (97%)

WWE 205 Live

Audio
ID : 2
Format : AAC LC
Format/Info : Advanced Audio
Codec ID : mp4a-40-2
Duration : 26 min 41 s
Bit rate mode : Constant
Bit rate : 192 kb/s
Channel(s) : 2 channels
Channel layout : L R
Sampling rate : 48.0 kHz
Frame rate : 46.875 FPS (1024 SPF)
Compression mode : Lossy
Stream size : 36.8 MiB (2%)
Default : Yes
Alternate group : 1

WWE 205 Live

Text
ID : 3
Format : Timed Text
Muxing mode : sbtl
Codec ID : tx3g
Duration : 26 min 35 s
Bit rate mode : Variable
Bit rate : 113 b/s
Stream size : 22.0 KiB (0%)
Language : English
Default : Yes
Forced : No
Alternate group : 3

WWE 205 Live

Complete name : WWE.205.Live.2021.08.13.1080p.WEB.h264-HEEL.mp4
Format : MPEG-4
Format profile : Base Media
Codec ID : isom
File size : 1.47 GiB
Duration : 26 min 42 s
Overall bit rate mode : Variable
Overall bit rate : 7 905 kb/s

Video
ID : 1
Format : AVC
Format/Info : Advanced Video
Duration : 26 min 42 s
Bit rate : 7 808 kb/s
Width : 1 920 pixels
Height : 1 080 pixels
Display aspect ratio : 16:9
Frame rate mode : Constant
Frame rate : 30.000 FPS
Color space : YUV
Chroma subsampling : 4:2:0
Bit depth : 8 bits
Scan type : Progressive
Bits/(Pixel*Frame) : 0.126
Stream size : 1.44 GiB (97%)

WWE 205 Live

Audio
ID : 2
Format : AAC LC
Format/Info : Advanced Audio
Codec ID : mp4a-40-2
Duration : 26 min 41 s
Bit rate mode : Constant
Bit rate : 192 kb/s
Channel(s) : 2 channels
Channel layout : L R
Sampling rate : 48.0 kHz
Frame rate : 46.875 FPS (1024 SPF)
Compression mode : Lossy
Stream size : 36.8 MiB (2%)
Default : Yes
Alternate group : 1

WWE 205 Live

Text
ID : 3
Format : Timed Text
Muxing mode : sbtl
Codec ID : tx3g
Duration : 26 min 35 s
Bit rate mode : Variable
Bit rate : 113 b/s
Stream size : 22.0 KiB (0%)
Language : English
Default : Yes
Forced : No
Alternate group : 3

WWE 205 Live

Complete name : WWE.205.Live.2021.08.13.1080p.WEB.h264-HEEL.mp4
Format : MPEG-4
Format profile : Base Media
Codec ID : isom
File size : 1.47 GiB
Duration : 26 min 42 s
Overall bit rate mode : Variable
Overall bit rate : 7 905 kb/s

Video
ID : 1
Format : AVC
Format/Info : Advanced Video
Duration : 26 min 42 s
Bit rate : 7 808 kb/s
Width : 1 920 pixels
Height : 1 080 pixels
Display aspect ratio : 16:9
Frame rate mode : Constant
Frame rate : 30.000 FPS
Color space : YUV
Chroma subsampling : 4:2:0
Bit depth : 8 bits
Scan type : Progressive
Bits/(Pixel*Frame) : 0.126
Stream size : 1.44 GiB (97%)

WWE 205 Live

Audio
ID : 2
Format : AAC LC
Format/Info : Advanced Audio
Codec ID : mp4a-40-2
Duration : 26 min 41 s
Bit rate mode : Constant
Bit rate : 192 kb/s
Channel(s) : 2 channels
Channel layout : L R
Sampling rate : 48.0 kHz
Frame rate : 46.875 FPS (1024 SPF)
Compression mode : Lossy
Stream size : 36.8 MiB (2%)
Default : Yes
Alternate group : 1

WWE 205 Live

Text
ID : 3
Format : Timed Text
Muxing mode : sbtl
Codec ID : tx3g
Duration : 26 min 35 s
Bit rate mode : Variable
Bit rate : 113 b/s
Stream size : 22.0 KiB (0%)
Language : English
Default : Yes
Forced : No
Alternate group : 3

WWE 205 Live

Complete name : WWE.205.Live.2021.08.13.1080p.WEB.h264-HEEL.mp4
Format : MPEG-4
Format profile : Base Media
Codec ID : isom
File size : 1.47 GiB
Duration : 26 min 42 s
Overall bit rate mode : Variable
Overall bit rate : 7 905 kb/s

Video
ID : 1
Format : AVC
Format/Info : Advanced Video
Duration : 26 min 42 s
Bit rate : 7 808 kb/s
Width : 1 920 pixels
Height : 1 080 pixels
Display aspect ratio : 16:9
Frame rate mode : Constant
Frame rate : 30.000 FPS
Color space : YUV
Chroma subsampling : 4:2:0
Bit depth : 8 bits
Scan type : Progressive
Bits/(Pixel*Frame) : 0.126
Stream size : 1.44 GiB (97%)

WWE 205 Live

Audio
ID : 2
Format : AAC LC
Format/Info : Advanced Audio
Codec ID : mp4a-40-2
Duration : 26 min 41 s
Bit rate mode : Constant
Bit rate : 192 kb/s
Channel(s) : 2 channels
Channel layout : L R
Sampling rate : 48.0 kHz
Frame rate : 46.875 FPS (1024 SPF)
Compression mode : Lossy
Stream size : 36.8 MiB (2%)
Default : Yes
Alternate group : 1

WWE 205 Live

Text
ID : 3
Format : Timed Text
Muxing mode : sbtl
Codec ID : tx3g
Duration : 26 min 35 s
Bit rate mode : Variable
Bit rate : 113 b/s
Stream size : 22.0 KiB (0%)
Language : English
Default : Yes
Forced : No
Alternate group : 3

WWE 205 Live

Complete name : WWE.205.Live.2021.08.13.1080p.WEB.h264-HEEL.mp4
Format : MPEG-4
Format profile : Base Media
Codec ID : isom
File size : 1.47 GiB
Duration : 26 min 42 s
Overall bit rate mode : Variable
Overall bit rate : 7 905 kb/s

Video
ID : 1
Format : AVC
Format/Info : Advanced Video
Duration : 26 min 42 s
Bit rate : 7 808 kb/s
Width : 1 920 pixels
Height : 1 080 pixels
Display aspect ratio : 16:9
Frame rate mode : Constant
Frame rate : 30.000 FPS
Color space : YUV
Chroma subsampling : 4:2:0
Bit depth : 8 bits
Scan type : Progressive
Bits/(Pixel*Frame) : 0.126
Stream size : 1.44 GiB (97%)

WWE 205 Live

Audio
ID : 2
Format : AAC LC
Format/Info : Advanced Audio
Codec ID : mp4a-40-2
Duration : 26 min 41 s
Bit rate mode : Constant
Bit rate : 192 kb/s
Channel(s) : 2 channels
Channel layout : L R
Sampling rate : 48.0 kHz
Frame rate : 46.875 FPS (1024 SPF)
Compression mode : Lossy
Stream size : 36.8 MiB (2%)
Default : Yes
Alternate group : 1

WWE 205 Live

Text
ID : 3
Format : Timed Text
Muxing mode : sbtl
Codec ID : tx3g
Duration : 26 min 35 s
Bit rate mode : Variable
Bit rate : 113 b/s
Stream size : 22.0 KiB (0%)
Language : English
Default : Yes
Forced : No
Alternate group : 3

WWE 205 Live

Complete name : WWE.205.Live.2021.08.13.1080p.WEB.h264-HEEL.mp4
Format : MPEG-4
Format profile : Base Media
Codec ID : isom
File size : 1.47 GiB
Duration : 26 min 42 s
Overall bit rate mode : Variable
Overall bit rate : 7 905 kb/s

Video
ID : 1
Format : AVC
Format/Info : Advanced Video
Duration : 26 min 42 s
Bit rate : 7 808 kb/s
Width : 1 920 pixels
Height : 1 080 pixels
Display aspect ratio : 16:9
Frame rate mode : Constant
Frame rate : 30.000 FPS
Color space : YUV
Chroma subsampling : 4:2:0
Bit depth : 8 bits
Scan type : Progressive
Bits/(Pixel*Frame) : 0.126
Stream size : 1.44 GiB (97%)

WWE 205 Live

Audio
ID : 2
Format : AAC LC
Format/Info : Advanced Audio
Codec ID : mp4a-40-2
Duration : 26 min 41 s
Bit rate mode : Constant
Bit rate : 192 kb/s
Channel(s) : 2 channels
Channel layout : L R
Sampling rate : 48.0 kHz
Frame rate : 46.875 FPS (1024 SPF)
Compression mode : Lossy
Stream size : 36.8 MiB (2%)
Default : Yes
Alternate group : 1

WWE 205 Live

Text
ID : 3
Format : Timed Text
Muxing mode : sbtl
Codec ID : tx3g
Duration : 26 min 35 s
Bit rate mode : Variable
Bit rate : 113 b/s
Stream size : 22.0 KiB (0%)
Language : English
Default : Yes
Forced : No
Alternate group : 3

WWE 205 Live

Complete name : WWE.205.Live.2021.08.13.1080p.WEB.h264-HEEL.mp4
Format : MPEG-4
Format profile : Base Media
Codec ID : isom
File size : 1.47 GiB
Duration : 26 min 42 s
Overall bit rate mode : Variable
Overall bit rate : 7 905 kb/s

Video
ID : 1
Format : AVC
Format/Info : Advanced Video
Duration : 26 min 42 s
Bit rate : 7 808 kb/s
Width : 1 920 pixels
Height : 1 080 pixels
Display aspect ratio : 16:9
Frame rate mode : Constant
Frame rate : 30.000 FPS
Color space : YUV
Chroma subsampling : 4:2:0
Bit depth : 8 bits
Scan type : Progressive
Bits/(Pixel*Frame) : 0.126
Stream size : 1.44 GiB (97%)

WWE 205 Live

Audio
ID : 2
Format : AAC LC
Format/Info : Advanced Audio
Codec ID : mp4a-40-2
Duration : 26 min 41 s
Bit rate mode : Constant
Bit rate : 192 kb/s
Channel(s) : 2 channels
Channel layout : L R
Sampling rate : 48.0 kHz
Frame rate : 46.875 FPS (1024 SPF)
Compression mode : Lossy
Stream size : 36.8 MiB (2%)
Default : Yes
Alternate group : 1

WWE 205 Live

Text
ID : 3
Format : Timed Text
Muxing mode : sbtl
Codec ID : tx3g
Duration : 26 min 35 s
Bit rate mode : Variable
Bit rate : 113 b/s
Stream size : 22.0 KiB (0%)
Language : English
Default : Yes
Forced : No
Alternate group : 3

WWE 205 Live

Complete name : WWE.205.Live.2021.08.13.1080p.WEB.h264-HEEL.mp4
Format : MPEG-4
Format profile : Base Media
Codec ID : isom
File size : 1.47 GiB
Duration : 26 min 42 s
Overall bit rate mode : Variable
Overall bit rate : 7 905 kb/s

Video
ID : 1
Format : AVC
Format/Info : Advanced Video
Duration : 26 min 42 s
Bit rate : 7 808 kb/s
Width : 1 920 pixels
Height : 1 080 pixels
Display aspect ratio : 16:9
Frame rate mode : Constant
Frame rate : 30.000 FPS
Color space : YUV
Chroma subsampling : 4:2:0
Bit depth : 8 bits
Scan type : Progressive
Bits/(Pixel*Frame) : 0.126
Stream size : 1.44 GiB (97%)

WWE 205 Live

Audio
ID : 2
Format : AAC LC
Format/Info : Advanced Audio
Codec ID : mp4a-40-2
Duration : 26 min 41 s
Bit rate mode : Constant
Bit rate : 192 kb/s
Channel(s) : 2 channels
Channel layout : L R
Sampling rate : 48.0 kHz
Frame rate : 46.875 FPS (1024 SPF)
Compression mode : Lossy
Stream size : 36.8 MiB (2%)
Default : Yes
Alternate group : 1

WWE 205 Live

Text
ID : 3
Format : Timed Text
Muxing mode : sbtl
Codec ID : tx3g
Duration : 26 min 35 s
Bit rate mode : Variable
Bit rate : 113 b/s
Stream size : 22.0 KiB (0%)
Language : English
Default : Yes
Forced : No
Alternate group : 3

WWE 205 Live

vv

[collapse]

 

 

https://dx-tv.com/

You May Also Like

Leave a Reply

Your email address will not be published. Required fields are marked *

This site uses Akismet to reduce spam. Learn how your comment data is processed.