WWE 205 Live 2021 07 16 1080p Online Free Replay DX-TV

WWE 205 Live

 WWE 205 Live

 

 

 

Download Links with premium High Speed


 

Dopapk

 

 

Show Links

 

http://shrt10.com/oCXKY

 

[collapse]

 

 

Nitroflare

 

 

Show Links

 

http://shrt10.com/6xZBTb

 

[collapse]

 

 

Rapidgator

 

 

Show Links

 

http://shrt10.com/ph2h1dqdx

 

[collapse]

 

 

Uploaded

 

 

Show Links

 

http://shrt10.com/j7sDxYpc

 

[collapse]

 

 

Watch online

 

Server 1

 

 

 

 

WWE 205 Live

 

 

 

 

Server-2

 

 

 

 

watch now

 

 

 

|Server-3

 

 

 

 

watch now

 

 

Uploaded By Site DX-TV.com

 

 

Show Info This Show

WWE 205 Live

 

Complete name : WWE.205.Live.2021.07.16.1080p.WEB.h264-HEEL.mp4
Format : MPEG-4
Format profile : Base Media
Codec ID : isom
File size : 1.79 GiB
Duration : 32 min 27 s
Overall bit rate mode : Variable
Overall bit rate : 7 882 kb/s

Video
ID : 1
Format : AVC
Format/Info : Advanced Video
Duration : 32 min 27 s
Bit rate : 7 808 kb/s
Maximum bit rate : 7 681 kb/s
Width : 1 920 pixels
Height : 1 080 pixels
Display aspect ratio : 16:9
Frame rate mode : Constant
Frame rate : 30.000 FPS
Color space : YUV
Chroma subsampling : 4:2:0
Bit depth : 8 bits
Scan type : Progressive
Bits/(Pixel*Frame) : 0.126
Stream size : 1.74 GiB (97%)

WWE 205 Live

Audio
ID : 2
Format : AAC LC
Format/Info : Advanced Audio
Codec ID : mp4a-40-2
Duration : 32 min 27 s
Source duration : 32 min 27 s
Bit rate mode : Constant
Nominal bit rate : 192 kb/s
Maximum bit rate : 192 kb/s
Channel(s) : 2 channels
Channel layout : L R
Sampling rate : 48.0 kHz
Frame rate : 46.875 FPS (1024 SPF)
Compression mode : Lossy
Source stream size : 44.6 MiB (2%)
Default : Yes
Alternate group : 1
mdhd_Duration : 1947991

WWE 205 Live

Text
ID : 3
Format : Timed Text
Muxing mode : sbtl
Codec ID : tx3g
Duration : 32 min 23 s
Bit rate mode : Variable
Bit rate : 111 b/s
Stream size : 26.4 KiB (0%)
Language : English
Default : Yes
Forced : No
Alternate group : 3

WWE 205 Live

Complete name : WWE.205.Live.2021.07.16.1080p.WEB.h264-HEEL.mp4
Format : MPEG-4
Format profile : Base Media
Codec ID : isom
File size : 1.79 GiB
Duration : 32 min 27 s
Overall bit rate mode : Variable
Overall bit rate : 7 882 kb/s

Video
ID : 1
Format : AVC
Format/Info : Advanced Video
Duration : 32 min 27 s
Bit rate : 7 808 kb/s
Maximum bit rate : 7 681 kb/s
Width : 1 920 pixels
Height : 1 080 pixels
Display aspect ratio : 16:9
Frame rate mode : Constant
Frame rate : 30.000 FPS
Color space : YUV
Chroma subsampling : 4:2:0
Bit depth : 8 bits
Scan type : Progressive
Bits/(Pixel*Frame) : 0.126
Stream size : 1.74 GiB (97%)

WWE 205 Live

Audio
ID : 2
Format : AAC LC
Format/Info : Advanced Audio
Codec ID : mp4a-40-2
Duration : 32 min 27 s
Source duration : 32 min 27 s
Bit rate mode : Constant
Nominal bit rate : 192 kb/s
Maximum bit rate : 192 kb/s
Channel(s) : 2 channels
Channel layout : L R
Sampling rate : 48.0 kHz
Frame rate : 46.875 FPS (1024 SPF)
Compression mode : Lossy
Source stream size : 44.6 MiB (2%)
Default : Yes
Alternate group : 1
mdhd_Duration : 1947991

WWE 205 Live

Text
ID : 3
Format : Timed Text
Muxing mode : sbtl
Codec ID : tx3g
Duration : 32 min 23 s
Bit rate mode : Variable
Bit rate : 111 b/s
Stream size : 26.4 KiB (0%)
Language : English
Default : Yes
Forced : No
Alternate group : 3

WWE 205 Live

Complete name : WWE.205.Live.2021.07.16.1080p.WEB.h264-HEEL.mp4
Format : MPEG-4
Format profile : Base Media
Codec ID : isom
File size : 1.79 GiB
Duration : 32 min 27 s
Overall bit rate mode : Variable
Overall bit rate : 7 882 kb/s

Video
ID : 1
Format : AVC
Format/Info : Advanced Video
Duration : 32 min 27 s
Bit rate : 7 808 kb/s
Maximum bit rate : 7 681 kb/s
Width : 1 920 pixels
Height : 1 080 pixels
Display aspect ratio : 16:9
Frame rate mode : Constant
Frame rate : 30.000 FPS
Color space : YUV
Chroma subsampling : 4:2:0
Bit depth : 8 bits
Scan type : Progressive
Bits/(Pixel*Frame) : 0.126
Stream size : 1.74 GiB (97%)

WWE 205 Live

Audio
ID : 2
Format : AAC LC
Format/Info : Advanced Audio
Codec ID : mp4a-40-2
Duration : 32 min 27 s
Source duration : 32 min 27 s
Bit rate mode : Constant
Nominal bit rate : 192 kb/s
Maximum bit rate : 192 kb/s
Channel(s) : 2 channels
Channel layout : L R
Sampling rate : 48.0 kHz
Frame rate : 46.875 FPS (1024 SPF)
Compression mode : Lossy
Source stream size : 44.6 MiB (2%)
Default : Yes
Alternate group : 1
mdhd_Duration : 1947991

WWE 205 Live

Text
ID : 3
Format : Timed Text
Muxing mode : sbtl
Codec ID : tx3g
Duration : 32 min 23 s
Bit rate mode : Variable
Bit rate : 111 b/s
Stream size : 26.4 KiB (0%)
Language : English
Default : Yes
Forced : No
Alternate group : 3

WWE 205 Live

Complete name : WWE.205.Live.2021.07.16.1080p.WEB.h264-HEEL.mp4
Format : MPEG-4
Format profile : Base Media
Codec ID : isom
File size : 1.79 GiB
Duration : 32 min 27 s
Overall bit rate mode : Variable
Overall bit rate : 7 882 kb/s

Video
ID : 1
Format : AVC
Format/Info : Advanced Video
Duration : 32 min 27 s
Bit rate : 7 808 kb/s
Maximum bit rate : 7 681 kb/s
Width : 1 920 pixels
Height : 1 080 pixels
Display aspect ratio : 16:9
Frame rate mode : Constant
Frame rate : 30.000 FPS
Color space : YUV
Chroma subsampling : 4:2:0
Bit depth : 8 bits
Scan type : Progressive
Bits/(Pixel*Frame) : 0.126
Stream size : 1.74 GiB (97%)

WWE 205 Live

Audio
ID : 2
Format : AAC LC
Format/Info : Advanced Audio
Codec ID : mp4a-40-2
Duration : 32 min 27 s
Source duration : 32 min 27 s
Bit rate mode : Constant
Nominal bit rate : 192 kb/s
Maximum bit rate : 192 kb/s
Channel(s) : 2 channels
Channel layout : L R
Sampling rate : 48.0 kHz
Frame rate : 46.875 FPS (1024 SPF)
Compression mode : Lossy
Source stream size : 44.6 MiB (2%)
Default : Yes
Alternate group : 1
mdhd_Duration : 1947991

WWE 205 Live

Text
ID : 3
Format : Timed Text
Muxing mode : sbtl
Codec ID : tx3g
Duration : 32 min 23 s
Bit rate mode : Variable
Bit rate : 111 b/s
Stream size : 26.4 KiB (0%)
Language : English
Default : Yes
Forced : No
Alternate group : 3

WWE 205 Live

Complete name : WWE.205.Live.2021.07.16.1080p.WEB.h264-HEEL.mp4
Format : MPEG-4
Format profile : Base Media
Codec ID : isom
File size : 1.79 GiB
Duration : 32 min 27 s
Overall bit rate mode : Variable
Overall bit rate : 7 882 kb/s

Video
ID : 1
Format : AVC
Format/Info : Advanced Video
Duration : 32 min 27 s
Bit rate : 7 808 kb/s
Maximum bit rate : 7 681 kb/s
Width : 1 920 pixels
Height : 1 080 pixels
Display aspect ratio : 16:9
Frame rate mode : Constant
Frame rate : 30.000 FPS
Color space : YUV
Chroma subsampling : 4:2:0
Bit depth : 8 bits
Scan type : Progressive
Bits/(Pixel*Frame) : 0.126
Stream size : 1.74 GiB (97%)

WWE 205 Live

Audio
ID : 2
Format : AAC LC
Format/Info : Advanced Audio
Codec ID : mp4a-40-2
Duration : 32 min 27 s
Source duration : 32 min 27 s
Bit rate mode : Constant
Nominal bit rate : 192 kb/s
Maximum bit rate : 192 kb/s
Channel(s) : 2 channels
Channel layout : L R
Sampling rate : 48.0 kHz
Frame rate : 46.875 FPS (1024 SPF)
Compression mode : Lossy
Source stream size : 44.6 MiB (2%)
Default : Yes
Alternate group : 1
mdhd_Duration : 1947991

WWE 205 Live

Text
ID : 3
Format : Timed Text
Muxing mode : sbtl
Codec ID : tx3g
Duration : 32 min 23 s
Bit rate mode : Variable
Bit rate : 111 b/s
Stream size : 26.4 KiB (0%)
Language : English
Default : Yes
Forced : No
Alternate group : 3

WWE 205 Live

Complete name : WWE.205.Live.2021.07.16.1080p.WEB.h264-HEEL.mp4
Format : MPEG-4
Format profile : Base Media
Codec ID : isom
File size : 1.79 GiB
Duration : 32 min 27 s
Overall bit rate mode : Variable
Overall bit rate : 7 882 kb/s

Video
ID : 1
Format : AVC
Format/Info : Advanced Video
Duration : 32 min 27 s
Bit rate : 7 808 kb/s
Maximum bit rate : 7 681 kb/s
Width : 1 920 pixels
Height : 1 080 pixels
Display aspect ratio : 16:9
Frame rate mode : Constant
Frame rate : 30.000 FPS
Color space : YUV
Chroma subsampling : 4:2:0
Bit depth : 8 bits
Scan type : Progressive
Bits/(Pixel*Frame) : 0.126
Stream size : 1.74 GiB (97%)

WWE 205 Live

Audio
ID : 2
Format : AAC LC
Format/Info : Advanced Audio
Codec ID : mp4a-40-2
Duration : 32 min 27 s
Source duration : 32 min 27 s
Bit rate mode : Constant
Nominal bit rate : 192 kb/s
Maximum bit rate : 192 kb/s
Channel(s) : 2 channels
Channel layout : L R
Sampling rate : 48.0 kHz
Frame rate : 46.875 FPS (1024 SPF)
Compression mode : Lossy
Source stream size : 44.6 MiB (2%)
Default : Yes
Alternate group : 1
mdhd_Duration : 1947991

WWE 205 Live

Text
ID : 3
Format : Timed Text
Muxing mode : sbtl
Codec ID : tx3g
Duration : 32 min 23 s
Bit rate mode : Variable
Bit rate : 111 b/s
Stream size : 26.4 KiB (0%)
Language : English
Default : Yes
Forced : No
Alternate group : 3

WWE 205 Live

Complete name : WWE.205.Live.2021.07.16.1080p.WEB.h264-HEEL.mp4
Format : MPEG-4
Format profile : Base Media
Codec ID : isom
File size : 1.79 GiB
Duration : 32 min 27 s
Overall bit rate mode : Variable
Overall bit rate : 7 882 kb/s

Video
ID : 1
Format : AVC
Format/Info : Advanced Video
Duration : 32 min 27 s
Bit rate : 7 808 kb/s
Maximum bit rate : 7 681 kb/s
Width : 1 920 pixels
Height : 1 080 pixels
Display aspect ratio : 16:9
Frame rate mode : Constant
Frame rate : 30.000 FPS
Color space : YUV
Chroma subsampling : 4:2:0
Bit depth : 8 bits
Scan type : Progressive
Bits/(Pixel*Frame) : 0.126
Stream size : 1.74 GiB (97%)

WWE 205 Live

Audio
ID : 2
Format : AAC LC
Format/Info : Advanced Audio
Codec ID : mp4a-40-2
Duration : 32 min 27 s
Source duration : 32 min 27 s
Bit rate mode : Constant
Nominal bit rate : 192 kb/s
Maximum bit rate : 192 kb/s
Channel(s) : 2 channels
Channel layout : L R
Sampling rate : 48.0 kHz
Frame rate : 46.875 FPS (1024 SPF)
Compression mode : Lossy
Source stream size : 44.6 MiB (2%)
Default : Yes
Alternate group : 1
mdhd_Duration : 1947991

WWE 205 Live

Text
ID : 3
Format : Timed Text
Muxing mode : sbtl
Codec ID : tx3g
Duration : 32 min 23 s
Bit rate mode : Variable
Bit rate : 111 b/s
Stream size : 26.4 KiB (0%)
Language : English
Default : Yes
Forced : No
Alternate group : 3

WWE 205 Live

Complete name : WWE.205.Live.2021.07.16.1080p.WEB.h264-HEEL.mp4
Format : MPEG-4
Format profile : Base Media
Codec ID : isom
File size : 1.79 GiB
Duration : 32 min 27 s
Overall bit rate mode : Variable
Overall bit rate : 7 882 kb/s

Video
ID : 1
Format : AVC
Format/Info : Advanced Video
Duration : 32 min 27 s
Bit rate : 7 808 kb/s
Maximum bit rate : 7 681 kb/s
Width : 1 920 pixels
Height : 1 080 pixels
Display aspect ratio : 16:9
Frame rate mode : Constant
Frame rate : 30.000 FPS
Color space : YUV
Chroma subsampling : 4:2:0
Bit depth : 8 bits
Scan type : Progressive
Bits/(Pixel*Frame) : 0.126
Stream size : 1.74 GiB (97%)

WWE 205 Live

Audio
ID : 2
Format : AAC LC
Format/Info : Advanced Audio
Codec ID : mp4a-40-2
Duration : 32 min 27 s
Source duration : 32 min 27 s
Bit rate mode : Constant
Nominal bit rate : 192 kb/s
Maximum bit rate : 192 kb/s
Channel(s) : 2 channels
Channel layout : L R
Sampling rate : 48.0 kHz
Frame rate : 46.875 FPS (1024 SPF)
Compression mode : Lossy
Source stream size : 44.6 MiB (2%)
Default : Yes
Alternate group : 1
mdhd_Duration : 1947991

WWE 205 Live

Text
ID : 3
Format : Timed Text
Muxing mode : sbtl
Codec ID : tx3g
Duration : 32 min 23 s
Bit rate mode : Variable
Bit rate : 111 b/s
Stream size : 26.4 KiB (0%)
Language : English
Default : Yes
Forced : No
Alternate group : 3

WWE 205 Live

Complete name : WWE.205.Live.2021.07.16.1080p.WEB.h264-HEEL.mp4
Format : MPEG-4
Format profile : Base Media
Codec ID : isom
File size : 1.79 GiB
Duration : 32 min 27 s
Overall bit rate mode : Variable
Overall bit rate : 7 882 kb/s

Video
ID : 1
Format : AVC
Format/Info : Advanced Video
Duration : 32 min 27 s
Bit rate : 7 808 kb/s
Maximum bit rate : 7 681 kb/s
Width : 1 920 pixels
Height : 1 080 pixels
Display aspect ratio : 16:9
Frame rate mode : Constant
Frame rate : 30.000 FPS
Color space : YUV
Chroma subsampling : 4:2:0
Bit depth : 8 bits
Scan type : Progressive
Bits/(Pixel*Frame) : 0.126
Stream size : 1.74 GiB (97%)

WWE 205 Live

Audio
ID : 2
Format : AAC LC
Format/Info : Advanced Audio
Codec ID : mp4a-40-2
Duration : 32 min 27 s
Source duration : 32 min 27 s
Bit rate mode : Constant
Nominal bit rate : 192 kb/s
Maximum bit rate : 192 kb/s
Channel(s) : 2 channels
Channel layout : L R
Sampling rate : 48.0 kHz
Frame rate : 46.875 FPS (1024 SPF)
Compression mode : Lossy
Source stream size : 44.6 MiB (2%)
Default : Yes
Alternate group : 1
mdhd_Duration : 1947991

WWE 205 Live

Text
ID : 3
Format : Timed Text
Muxing mode : sbtl
Codec ID : tx3g
Duration : 32 min 23 s
Bit rate mode : Variable
Bit rate : 111 b/s
Stream size : 26.4 KiB (0%)
Language : English
Default : Yes
Forced : No
Alternate group : 3

WWE 205 Live

Complete name : WWE.205.Live.2021.07.16.1080p.WEB.h264-HEEL.mp4
Format : MPEG-4
Format profile : Base Media
Codec ID : isom
File size : 1.79 GiB
Duration : 32 min 27 s
Overall bit rate mode : Variable
Overall bit rate : 7 882 kb/s

Video
ID : 1
Format : AVC
Format/Info : Advanced Video
Duration : 32 min 27 s
Bit rate : 7 808 kb/s
Maximum bit rate : 7 681 kb/s
Width : 1 920 pixels
Height : 1 080 pixels
Display aspect ratio : 16:9
Frame rate mode : Constant
Frame rate : 30.000 FPS
Color space : YUV
Chroma subsampling : 4:2:0
Bit depth : 8 bits
Scan type : Progressive
Bits/(Pixel*Frame) : 0.126
Stream size : 1.74 GiB (97%)

WWE 205 Live

Audio
ID : 2
Format : AAC LC
Format/Info : Advanced Audio
Codec ID : mp4a-40-2
Duration : 32 min 27 s
Source duration : 32 min 27 s
Bit rate mode : Constant
Nominal bit rate : 192 kb/s
Maximum bit rate : 192 kb/s
Channel(s) : 2 channels
Channel layout : L R
Sampling rate : 48.0 kHz
Frame rate : 46.875 FPS (1024 SPF)
Compression mode : Lossy
Source stream size : 44.6 MiB (2%)
Default : Yes
Alternate group : 1
mdhd_Duration : 1947991

WWE 205 Live

Text
ID : 3
Format : Timed Text
Muxing mode : sbtl
Codec ID : tx3g
Duration : 32 min 23 s
Bit rate mode : Variable
Bit rate : 111 b/s
Stream size : 26.4 KiB (0%)
Language : English
Default : Yes
Forced : No
Alternate group : 3

WWE 205 Live

Complete name : WWE.205.Live.2021.07.16.1080p.WEB.h264-HEEL.mp4
Format : MPEG-4
Format profile : Base Media
Codec ID : isom
File size : 1.79 GiB
Duration : 32 min 27 s
Overall bit rate mode : Variable
Overall bit rate : 7 882 kb/s

Video
ID : 1
Format : AVC
Format/Info : Advanced Video
Duration : 32 min 27 s
Bit rate : 7 808 kb/s
Maximum bit rate : 7 681 kb/s
Width : 1 920 pixels
Height : 1 080 pixels
Display aspect ratio : 16:9
Frame rate mode : Constant
Frame rate : 30.000 FPS
Color space : YUV
Chroma subsampling : 4:2:0
Bit depth : 8 bits
Scan type : Progressive
Bits/(Pixel*Frame) : 0.126
Stream size : 1.74 GiB (97%)

WWE 205 Live

Audio
ID : 2
Format : AAC LC
Format/Info : Advanced Audio
Codec ID : mp4a-40-2
Duration : 32 min 27 s
Source duration : 32 min 27 s
Bit rate mode : Constant
Nominal bit rate : 192 kb/s
Maximum bit rate : 192 kb/s
Channel(s) : 2 channels
Channel layout : L R
Sampling rate : 48.0 kHz
Frame rate : 46.875 FPS (1024 SPF)
Compression mode : Lossy
Source stream size : 44.6 MiB (2%)
Default : Yes
Alternate group : 1
mdhd_Duration : 1947991

WWE 205 Live

Text
ID : 3
Format : Timed Text
Muxing mode : sbtl
Codec ID : tx3g
Duration : 32 min 23 s
Bit rate mode : Variable
Bit rate : 111 b/s
Stream size : 26.4 KiB (0%)
Language : English
Default : Yes
Forced : No
Alternate group : 3

WWE 205 Live

Complete name : WWE.205.Live.2021.07.16.1080p.WEB.h264-HEEL.mp4
Format : MPEG-4
Format profile : Base Media
Codec ID : isom
File size : 1.79 GiB
Duration : 32 min 27 s
Overall bit rate mode : Variable
Overall bit rate : 7 882 kb/s

Video
ID : 1
Format : AVC
Format/Info : Advanced Video
Duration : 32 min 27 s
Bit rate : 7 808 kb/s
Maximum bit rate : 7 681 kb/s
Width : 1 920 pixels
Height : 1 080 pixels
Display aspect ratio : 16:9
Frame rate mode : Constant
Frame rate : 30.000 FPS
Color space : YUV
Chroma subsampling : 4:2:0
Bit depth : 8 bits
Scan type : Progressive
Bits/(Pixel*Frame) : 0.126
Stream size : 1.74 GiB (97%)

WWE 205 Live

Audio
ID : 2
Format : AAC LC
Format/Info : Advanced Audio
Codec ID : mp4a-40-2
Duration : 32 min 27 s
Source duration : 32 min 27 s
Bit rate mode : Constant
Nominal bit rate : 192 kb/s
Maximum bit rate : 192 kb/s
Channel(s) : 2 channels
Channel layout : L R
Sampling rate : 48.0 kHz
Frame rate : 46.875 FPS (1024 SPF)
Compression mode : Lossy
Source stream size : 44.6 MiB (2%)
Default : Yes
Alternate group : 1
mdhd_Duration : 1947991

WWE 205 Live

Text
ID : 3
Format : Timed Text
Muxing mode : sbtl
Codec ID : tx3g
Duration : 32 min 23 s
Bit rate mode : Variable
Bit rate : 111 b/s
Stream size : 26.4 KiB (0%)
Language : English
Default : Yes
Forced : No
Alternate group : 3

WWE 205 Live

Complete name : WWE.205.Live.2021.07.16.1080p.WEB.h264-HEEL.mp4
Format : MPEG-4
Format profile : Base Media
Codec ID : isom
File size : 1.79 GiB
Duration : 32 min 27 s
Overall bit rate mode : Variable
Overall bit rate : 7 882 kb/s

Video
ID : 1
Format : AVC
Format/Info : Advanced Video
Duration : 32 min 27 s
Bit rate : 7 808 kb/s
Maximum bit rate : 7 681 kb/s
Width : 1 920 pixels
Height : 1 080 pixels
Display aspect ratio : 16:9
Frame rate mode : Constant
Frame rate : 30.000 FPS
Color space : YUV
Chroma subsampling : 4:2:0
Bit depth : 8 bits
Scan type : Progressive
Bits/(Pixel*Frame) : 0.126
Stream size : 1.74 GiB (97%)

WWE 205 Live

Audio
ID : 2
Format : AAC LC
Format/Info : Advanced Audio
Codec ID : mp4a-40-2
Duration : 32 min 27 s
Source duration : 32 min 27 s
Bit rate mode : Constant
Nominal bit rate : 192 kb/s
Maximum bit rate : 192 kb/s
Channel(s) : 2 channels
Channel layout : L R
Sampling rate : 48.0 kHz
Frame rate : 46.875 FPS (1024 SPF)
Compression mode : Lossy
Source stream size : 44.6 MiB (2%)
Default : Yes
Alternate group : 1
mdhd_Duration : 1947991

WWE 205 Live

Text
ID : 3
Format : Timed Text
Muxing mode : sbtl
Codec ID : tx3g
Duration : 32 min 23 s
Bit rate mode : Variable
Bit rate : 111 b/s
Stream size : 26.4 KiB (0%)
Language : English
Default : Yes
Forced : No
Alternate group : 3

WWE 205 Live

Complete name : WWE.205.Live.2021.07.16.1080p.WEB.h264-HEEL.mp4
Format : MPEG-4
Format profile : Base Media
Codec ID : isom
File size : 1.79 GiB
Duration : 32 min 27 s
Overall bit rate mode : Variable
Overall bit rate : 7 882 kb/s

Video
ID : 1
Format : AVC
Format/Info : Advanced Video
Duration : 32 min 27 s
Bit rate : 7 808 kb/s
Maximum bit rate : 7 681 kb/s
Width : 1 920 pixels
Height : 1 080 pixels
Display aspect ratio : 16:9
Frame rate mode : Constant
Frame rate : 30.000 FPS
Color space : YUV
Chroma subsampling : 4:2:0
Bit depth : 8 bits
Scan type : Progressive
Bits/(Pixel*Frame) : 0.126
Stream size : 1.74 GiB (97%)

WWE 205 Live

Audio
ID : 2
Format : AAC LC
Format/Info : Advanced Audio
Codec ID : mp4a-40-2
Duration : 32 min 27 s
Source duration : 32 min 27 s
Bit rate mode : Constant
Nominal bit rate : 192 kb/s
Maximum bit rate : 192 kb/s
Channel(s) : 2 channels
Channel layout : L R
Sampling rate : 48.0 kHz
Frame rate : 46.875 FPS (1024 SPF)
Compression mode : Lossy
Source stream size : 44.6 MiB (2%)
Default : Yes
Alternate group : 1
mdhd_Duration : 1947991

WWE 205 Live

Text
ID : 3
Format : Timed Text
Muxing mode : sbtl
Codec ID : tx3g
Duration : 32 min 23 s
Bit rate mode : Variable
Bit rate : 111 b/s
Stream size : 26.4 KiB (0%)
Language : English
Default : Yes
Forced : No
Alternate group : 3

WWE 205 Live

Complete name : WWE.205.Live.2021.07.16.1080p.WEB.h264-HEEL.mp4
Format : MPEG-4
Format profile : Base Media
Codec ID : isom
File size : 1.79 GiB
Duration : 32 min 27 s
Overall bit rate mode : Variable
Overall bit rate : 7 882 kb/s

Video
ID : 1
Format : AVC
Format/Info : Advanced Video
Duration : 32 min 27 s
Bit rate : 7 808 kb/s
Maximum bit rate : 7 681 kb/s
Width : 1 920 pixels
Height : 1 080 pixels
Display aspect ratio : 16:9
Frame rate mode : Constant
Frame rate : 30.000 FPS
Color space : YUV
Chroma subsampling : 4:2:0
Bit depth : 8 bits
Scan type : Progressive
Bits/(Pixel*Frame) : 0.126
Stream size : 1.74 GiB (97%)

WWE 205 Live

Audio
ID : 2
Format : AAC LC
Format/Info : Advanced Audio
Codec ID : mp4a-40-2
Duration : 32 min 27 s
Source duration : 32 min 27 s
Bit rate mode : Constant
Nominal bit rate : 192 kb/s
Maximum bit rate : 192 kb/s
Channel(s) : 2 channels
Channel layout : L R
Sampling rate : 48.0 kHz
Frame rate : 46.875 FPS (1024 SPF)
Compression mode : Lossy
Source stream size : 44.6 MiB (2%)
Default : Yes
Alternate group : 1
mdhd_Duration : 1947991

WWE 205 Live

Text
ID : 3
Format : Timed Text
Muxing mode : sbtl
Codec ID : tx3g
Duration : 32 min 23 s
Bit rate mode : Variable
Bit rate : 111 b/s
Stream size : 26.4 KiB (0%)
Language : English
Default : Yes
Forced : No
Alternate group : 3

WWE 205 Live

Complete name : WWE.205.Live.2021.07.16.1080p.WEB.h264-HEEL.mp4
Format : MPEG-4
Format profile : Base Media
Codec ID : isom
File size : 1.79 GiB
Duration : 32 min 27 s
Overall bit rate mode : Variable
Overall bit rate : 7 882 kb/s

Video
ID : 1
Format : AVC
Format/Info : Advanced Video
Duration : 32 min 27 s
Bit rate : 7 808 kb/s
Maximum bit rate : 7 681 kb/s
Width : 1 920 pixels
Height : 1 080 pixels
Display aspect ratio : 16:9
Frame rate mode : Constant
Frame rate : 30.000 FPS
Color space : YUV
Chroma subsampling : 4:2:0
Bit depth : 8 bits
Scan type : Progressive
Bits/(Pixel*Frame) : 0.126
Stream size : 1.74 GiB (97%)

WWE 205 Live

Audio
ID : 2
Format : AAC LC
Format/Info : Advanced Audio
Codec ID : mp4a-40-2
Duration : 32 min 27 s
Source duration : 32 min 27 s
Bit rate mode : Constant
Nominal bit rate : 192 kb/s
Maximum bit rate : 192 kb/s
Channel(s) : 2 channels
Channel layout : L R
Sampling rate : 48.0 kHz
Frame rate : 46.875 FPS (1024 SPF)
Compression mode : Lossy
Source stream size : 44.6 MiB (2%)
Default : Yes
Alternate group : 1
mdhd_Duration : 1947991

WWE 205 Live

Text
ID : 3
Format : Timed Text
Muxing mode : sbtl
Codec ID : tx3g
Duration : 32 min 23 s
Bit rate mode : Variable
Bit rate : 111 b/s
Stream size : 26.4 KiB (0%)
Language : English
Default : Yes
Forced : No
Alternate group : 3

WWE 205 Live

Complete name : WWE.205.Live.2021.07.16.1080p.WEB.h264-HEEL.mp4
Format : MPEG-4
Format profile : Base Media
Codec ID : isom
File size : 1.79 GiB
Duration : 32 min 27 s
Overall bit rate mode : Variable
Overall bit rate : 7 882 kb/s

Video
ID : 1
Format : AVC
Format/Info : Advanced Video
Duration : 32 min 27 s
Bit rate : 7 808 kb/s
Maximum bit rate : 7 681 kb/s
Width : 1 920 pixels
Height : 1 080 pixels
Display aspect ratio : 16:9
Frame rate mode : Constant
Frame rate : 30.000 FPS
Color space : YUV
Chroma subsampling : 4:2:0
Bit depth : 8 bits
Scan type : Progressive
Bits/(Pixel*Frame) : 0.126
Stream size : 1.74 GiB (97%)

WWE 205 Live

Audio
ID : 2
Format : AAC LC
Format/Info : Advanced Audio
Codec ID : mp4a-40-2
Duration : 32 min 27 s
Source duration : 32 min 27 s
Bit rate mode : Constant
Nominal bit rate : 192 kb/s
Maximum bit rate : 192 kb/s
Channel(s) : 2 channels
Channel layout : L R
Sampling rate : 48.0 kHz
Frame rate : 46.875 FPS (1024 SPF)
Compression mode : Lossy
Source stream size : 44.6 MiB (2%)
Default : Yes
Alternate group : 1
mdhd_Duration : 1947991

WWE 205 Live

Text
ID : 3
Format : Timed Text
Muxing mode : sbtl
Codec ID : tx3g
Duration : 32 min 23 s
Bit rate mode : Variable
Bit rate : 111 b/s
Stream size : 26.4 KiB (0%)
Language : English
Default : Yes
Forced : No
Alternate group : 3

WWE 205 Live

Complete name : WWE.205.Live.2021.07.16.1080p.WEB.h264-HEEL.mp4
Format : MPEG-4
Format profile : Base Media
Codec ID : isom
File size : 1.79 GiB
Duration : 32 min 27 s
Overall bit rate mode : Variable
Overall bit rate : 7 882 kb/s

Video
ID : 1
Format : AVC
Format/Info : Advanced Video
Duration : 32 min 27 s
Bit rate : 7 808 kb/s
Maximum bit rate : 7 681 kb/s
Width : 1 920 pixels
Height : 1 080 pixels
Display aspect ratio : 16:9
Frame rate mode : Constant
Frame rate : 30.000 FPS
Color space : YUV
Chroma subsampling : 4:2:0
Bit depth : 8 bits
Scan type : Progressive
Bits/(Pixel*Frame) : 0.126
Stream size : 1.74 GiB (97%)

WWE 205 Live

Audio
ID : 2
Format : AAC LC
Format/Info : Advanced Audio
Codec ID : mp4a-40-2
Duration : 32 min 27 s
Source duration : 32 min 27 s
Bit rate mode : Constant
Nominal bit rate : 192 kb/s
Maximum bit rate : 192 kb/s
Channel(s) : 2 channels
Channel layout : L R
Sampling rate : 48.0 kHz
Frame rate : 46.875 FPS (1024 SPF)
Compression mode : Lossy
Source stream size : 44.6 MiB (2%)
Default : Yes
Alternate group : 1
mdhd_Duration : 1947991

WWE 205 Live

Text
ID : 3
Format : Timed Text
Muxing mode : sbtl
Codec ID : tx3g
Duration : 32 min 23 s
Bit rate mode : Variable
Bit rate : 111 b/s
Stream size : 26.4 KiB (0%)
Language : English
Default : Yes
Forced : No
Alternate group : 3

WWE 205 Live

 

[collapse]

 

 

https://dx-tv.com/

Leave a Reply

Your email address will not be published. Required fields are marked *

This site uses Akismet to reduce spam. Learn how your comment data is processed.

Previous Post
WWE SmackDown Live

WWE Smackdown Free Streaming 2021 July 16

Next Post
WWE SmackDown Live

WWE SmackDown 2021 07 16 1080p Online Free