WWE 205 Live 2021 07 02 1080p Online Free

WWE 205 Live 2021 07 02 1080p Online Free Replay DX-TV

WWE 205

 WWE 205

 

 

 

Download Links with High Speed


Dopapk

 

 

Show Links

 

http://shrt10.com/d8bTeYHd

 

[collapse]

 

 

Nitroflare

 

 

Show Links

 

http://shrt10.com/vyuXlyF2j

 

[collapse]

 

 

Rapidgator

 

 

Show Links

 

http://shrt10.com/dfJBMT

 

[collapse]

 

 

Uploaded

 

 

Show Links

 

http://shrt10.com/V0zVSiR

 

[collapse]

 

 

Watch online

 

Server 1

 

 

 

 

WWE 205

 

 

 

 

Server-2

 

 

 

 

watch now

 

 

 

|Server-4

 

 

 

 

watch now

 

 

Uploaded By Site DX-TV.com

 

 

Show Info This Show

 

WWE 205

Complete name : WWE.205.Live.2021.07.02.1080p.WEB.h264-HEEL.mp4
Format : MPEG-4
Format profile : Base Media
Codec ID : isom
File size : 1.53 GiB
Duration : 27 min 32 s
Overall bit rate mode : Variable
Overall bit rate : 7 927 kb/s

Video
ID : 1
Format : AVC
Format/Info : Advanced Video
Duration : 27 min 32 s
Bit rate : 7 808 kb/s
Width : 1 920 pixels
Height : 1 080 pixels
Display aspect ratio : 16:9
Frame rate mode : Constant
Frame rate : 30.000 FPS
Color space : YUV
Chroma subsampling : 4:2:0
Bit depth : 8 bits
Scan type : Progressive
Bits/(Pixel*Frame) : 0.126
Stream size : 1.49 GiB (97%)

WWE 205

Audio
ID : 2
Format : AAC LC
Format/Info : Advanced Audio
Codec ID : mp4a-40-2
Duration : 27 min 32 s
Bit rate mode : Constant
Bit rate : 192 kb/s
Channel(s) : 2 channels
Channel layout : L R
Sampling rate : 48.0 kHz
Frame rate : 46.875 FPS (1024 SPF)
Compression mode : Lossy
Stream size : 37.9 MiB (2%)
Default : Yes
Alternate group : 1

WWE 205

Text
ID : 3
Format : Timed Text
Muxing mode : sbtl
Codec ID : tx3g
Duration : 27 min 23 s
Bit rate mode : Variable
Bit rate : 110 b/s
Stream size : 22.0 KiB (0%)
Language : English
Default : Yes
Forced : No
Alternate group : 3

WWE 205

Complete name : WWE.205.Live.2021.07.02.1080p.WEB.h264-HEEL.mp4
Format : MPEG-4
Format profile : Base Media
Codec ID : isom
File size : 1.53 GiB
Duration : 27 min 32 s
Overall bit rate mode : Variable
Overall bit rate : 7 927 kb/s

Video
ID : 1
Format : AVC
Format/Info : Advanced Video
Duration : 27 min 32 s
Bit rate : 7 808 kb/s
Width : 1 920 pixels
Height : 1 080 pixels
Display aspect ratio : 16:9
Frame rate mode : Constant
Frame rate : 30.000 FPS
Color space : YUV
Chroma subsampling : 4:2:0
Bit depth : 8 bits
Scan type : Progressive
Bits/(Pixel*Frame) : 0.126
Stream size : 1.49 GiB (97%)

WWE 205

Audio
ID : 2
Format : AAC LC
Format/Info : Advanced Audio
Codec ID : mp4a-40-2
Duration : 27 min 32 s
Bit rate mode : Constant
Bit rate : 192 kb/s
Channel(s) : 2 channels
Channel layout : L R
Sampling rate : 48.0 kHz
Frame rate : 46.875 FPS (1024 SPF)
Compression mode : Lossy
Stream size : 37.9 MiB (2%)
Default : Yes
Alternate group : 1

WWE 205

Text
ID : 3
Format : Timed Text
Muxing mode : sbtl
Codec ID : tx3g
Duration : 27 min 23 s
Bit rate mode : Variable
Bit rate : 110 b/s
Stream size : 22.0 KiB (0%)
Language : English
Default : Yes
Forced : No
Alternate group : 3

WWE 205

Complete name : WWE.205.Live.2021.07.02.1080p.WEB.h264-HEEL.mp4
Format : MPEG-4
Format profile : Base Media
Codec ID : isom
File size : 1.53 GiB
Duration : 27 min 32 s
Overall bit rate mode : Variable
Overall bit rate : 7 927 kb/s

Video
ID : 1
Format : AVC
Format/Info : Advanced Video
Duration : 27 min 32 s
Bit rate : 7 808 kb/s
Width : 1 920 pixels
Height : 1 080 pixels
Display aspect ratio : 16:9
Frame rate mode : Constant
Frame rate : 30.000 FPS
Color space : YUV
Chroma subsampling : 4:2:0
Bit depth : 8 bits
Scan type : Progressive
Bits/(Pixel*Frame) : 0.126
Stream size : 1.49 GiB (97%)

WWE 205

Audio
ID : 2
Format : AAC LC
Format/Info : Advanced Audio
Codec ID : mp4a-40-2
Duration : 27 min 32 s
Bit rate mode : Constant
Bit rate : 192 kb/s
Channel(s) : 2 channels
Channel layout : L R
Sampling rate : 48.0 kHz
Frame rate : 46.875 FPS (1024 SPF)
Compression mode : Lossy
Stream size : 37.9 MiB (2%)
Default : Yes
Alternate group : 1

WWE 205

Text
ID : 3
Format : Timed Text
Muxing mode : sbtl
Codec ID : tx3g
Duration : 27 min 23 s
Bit rate mode : Variable
Bit rate : 110 b/s
Stream size : 22.0 KiB (0%)
Language : English
Default : Yes
Forced : No
Alternate group : 3

WWE 205

Complete name : WWE.205.Live.2021.07.02.1080p.WEB.h264-HEEL.mp4
Format : MPEG-4
Format profile : Base Media
Codec ID : isom
File size : 1.53 GiB
Duration : 27 min 32 s
Overall bit rate mode : Variable
Overall bit rate : 7 927 kb/s

Video
ID : 1
Format : AVC
Format/Info : Advanced Video
Duration : 27 min 32 s
Bit rate : 7 808 kb/s
Width : 1 920 pixels
Height : 1 080 pixels
Display aspect ratio : 16:9
Frame rate mode : Constant
Frame rate : 30.000 FPS
Color space : YUV
Chroma subsampling : 4:2:0
Bit depth : 8 bits
Scan type : Progressive
Bits/(Pixel*Frame) : 0.126
Stream size : 1.49 GiB (97%)

WWE 205

Audio
ID : 2
Format : AAC LC
Format/Info : Advanced Audio
Codec ID : mp4a-40-2
Duration : 27 min 32 s
Bit rate mode : Constant
Bit rate : 192 kb/s
Channel(s) : 2 channels
Channel layout : L R
Sampling rate : 48.0 kHz
Frame rate : 46.875 FPS (1024 SPF)
Compression mode : Lossy
Stream size : 37.9 MiB (2%)
Default : Yes
Alternate group : 1

WWE 205

Text
ID : 3
Format : Timed Text
Muxing mode : sbtl
Codec ID : tx3g
Duration : 27 min 23 s
Bit rate mode : Variable
Bit rate : 110 b/s
Stream size : 22.0 KiB (0%)
Language : English
Default : Yes
Forced : No
Alternate group : 3

WWE 205

Complete name : WWE.205.Live.2021.07.02.1080p.WEB.h264-HEEL.mp4
Format : MPEG-4
Format profile : Base Media
Codec ID : isom
File size : 1.53 GiB
Duration : 27 min 32 s
Overall bit rate mode : Variable
Overall bit rate : 7 927 kb/s

Video
ID : 1
Format : AVC
Format/Info : Advanced Video
Duration : 27 min 32 s
Bit rate : 7 808 kb/s
Width : 1 920 pixels
Height : 1 080 pixels
Display aspect ratio : 16:9
Frame rate mode : Constant
Frame rate : 30.000 FPS
Color space : YUV
Chroma subsampling : 4:2:0
Bit depth : 8 bits
Scan type : Progressive
Bits/(Pixel*Frame) : 0.126
Stream size : 1.49 GiB (97%)

WWE 205

Audio
ID : 2
Format : AAC LC
Format/Info : Advanced Audio
Codec ID : mp4a-40-2
Duration : 27 min 32 s
Bit rate mode : Constant
Bit rate : 192 kb/s
Channel(s) : 2 channels
Channel layout : L R
Sampling rate : 48.0 kHz
Frame rate : 46.875 FPS (1024 SPF)
Compression mode : Lossy
Stream size : 37.9 MiB (2%)
Default : Yes
Alternate group : 1

WWE 205

Text
ID : 3
Format : Timed Text
Muxing mode : sbtl
Codec ID : tx3g
Duration : 27 min 23 s
Bit rate mode : Variable
Bit rate : 110 b/s
Stream size : 22.0 KiB (0%)
Language : English
Default : Yes
Forced : No
Alternate group : 3

WWE 205

Complete name : WWE.205.Live.2021.07.02.1080p.WEB.h264-HEEL.mp4
Format : MPEG-4
Format profile : Base Media
Codec ID : isom
File size : 1.53 GiB
Duration : 27 min 32 s
Overall bit rate mode : Variable
Overall bit rate : 7 927 kb/s

Video
ID : 1
Format : AVC
Format/Info : Advanced Video
Duration : 27 min 32 s
Bit rate : 7 808 kb/s
Width : 1 920 pixels
Height : 1 080 pixels
Display aspect ratio : 16:9
Frame rate mode : Constant
Frame rate : 30.000 FPS
Color space : YUV
Chroma subsampling : 4:2:0
Bit depth : 8 bits
Scan type : Progressive
Bits/(Pixel*Frame) : 0.126
Stream size : 1.49 GiB (97%)

WWE 205

Audio
ID : 2
Format : AAC LC
Format/Info : Advanced Audio
Codec ID : mp4a-40-2
Duration : 27 min 32 s
Bit rate mode : Constant
Bit rate : 192 kb/s
Channel(s) : 2 channels
Channel layout : L R
Sampling rate : 48.0 kHz
Frame rate : 46.875 FPS (1024 SPF)
Compression mode : Lossy
Stream size : 37.9 MiB (2%)
Default : Yes
Alternate group : 1

WWE 205

Text
ID : 3
Format : Timed Text
Muxing mode : sbtl
Codec ID : tx3g
Duration : 27 min 23 s
Bit rate mode : Variable
Bit rate : 110 b/s
Stream size : 22.0 KiB (0%)
Language : English
Default : Yes
Forced : No
Alternate group : 3

WWE 205

Complete name : WWE.205.Live.2021.07.02.1080p.WEB.h264-HEEL.mp4
Format : MPEG-4
Format profile : Base Media
Codec ID : isom
File size : 1.53 GiB
Duration : 27 min 32 s
Overall bit rate mode : Variable
Overall bit rate : 7 927 kb/s

Video
ID : 1
Format : AVC
Format/Info : Advanced Video
Duration : 27 min 32 s
Bit rate : 7 808 kb/s
Width : 1 920 pixels
Height : 1 080 pixels
Display aspect ratio : 16:9
Frame rate mode : Constant
Frame rate : 30.000 FPS
Color space : YUV
Chroma subsampling : 4:2:0
Bit depth : 8 bits
Scan type : Progressive
Bits/(Pixel*Frame) : 0.126
Stream size : 1.49 GiB (97%)

WWE 205

Audio
ID : 2
Format : AAC LC
Format/Info : Advanced Audio
Codec ID : mp4a-40-2
Duration : 27 min 32 s
Bit rate mode : Constant
Bit rate : 192 kb/s
Channel(s) : 2 channels
Channel layout : L R
Sampling rate : 48.0 kHz
Frame rate : 46.875 FPS (1024 SPF)
Compression mode : Lossy
Stream size : 37.9 MiB (2%)
Default : Yes
Alternate group : 1

WWE 205

Text
ID : 3
Format : Timed Text
Muxing mode : sbtl
Codec ID : tx3g
Duration : 27 min 23 s
Bit rate mode : Variable
Bit rate : 110 b/s
Stream size : 22.0 KiB (0%)
Language : English
Default : Yes
Forced : No
Alternate group : 3

WWE 205

Complete name : WWE.205.Live.2021.07.02.1080p.WEB.h264-HEEL.mp4
Format : MPEG-4
Format profile : Base Media
Codec ID : isom
File size : 1.53 GiB
Duration : 27 min 32 s
Overall bit rate mode : Variable
Overall bit rate : 7 927 kb/s

Video
ID : 1
Format : AVC
Format/Info : Advanced Video
Duration : 27 min 32 s
Bit rate : 7 808 kb/s
Width : 1 920 pixels
Height : 1 080 pixels
Display aspect ratio : 16:9
Frame rate mode : Constant
Frame rate : 30.000 FPS
Color space : YUV
Chroma subsampling : 4:2:0
Bit depth : 8 bits
Scan type : Progressive
Bits/(Pixel*Frame) : 0.126
Stream size : 1.49 GiB (97%)

WWE 205

Audio
ID : 2
Format : AAC LC
Format/Info : Advanced Audio
Codec ID : mp4a-40-2
Duration : 27 min 32 s
Bit rate mode : Constant
Bit rate : 192 kb/s
Channel(s) : 2 channels
Channel layout : L R
Sampling rate : 48.0 kHz
Frame rate : 46.875 FPS (1024 SPF)
Compression mode : Lossy
Stream size : 37.9 MiB (2%)
Default : Yes
Alternate group : 1

WWE 205

Text
ID : 3
Format : Timed Text
Muxing mode : sbtl
Codec ID : tx3g
Duration : 27 min 23 s
Bit rate mode : Variable
Bit rate : 110 b/s
Stream size : 22.0 KiB (0%)
Language : English
Default : Yes
Forced : No
Alternate group : 3

WWE 205

Complete name : WWE.205.Live.2021.07.02.1080p.WEB.h264-HEEL.mp4
Format : MPEG-4
Format profile : Base Media
Codec ID : isom
File size : 1.53 GiB
Duration : 27 min 32 s
Overall bit rate mode : Variable
Overall bit rate : 7 927 kb/s

Video
ID : 1
Format : AVC
Format/Info : Advanced Video
Duration : 27 min 32 s
Bit rate : 7 808 kb/s
Width : 1 920 pixels
Height : 1 080 pixels
Display aspect ratio : 16:9
Frame rate mode : Constant
Frame rate : 30.000 FPS
Color space : YUV
Chroma subsampling : 4:2:0
Bit depth : 8 bits
Scan type : Progressive
Bits/(Pixel*Frame) : 0.126
Stream size : 1.49 GiB (97%)

WWE 205

Audio
ID : 2
Format : AAC LC
Format/Info : Advanced Audio
Codec ID : mp4a-40-2
Duration : 27 min 32 s
Bit rate mode : Constant
Bit rate : 192 kb/s
Channel(s) : 2 channels
Channel layout : L R
Sampling rate : 48.0 kHz
Frame rate : 46.875 FPS (1024 SPF)
Compression mode : Lossy
Stream size : 37.9 MiB (2%)
Default : Yes
Alternate group : 1

WWE 205

Text
ID : 3
Format : Timed Text
Muxing mode : sbtl
Codec ID : tx3g
Duration : 27 min 23 s
Bit rate mode : Variable
Bit rate : 110 b/s
Stream size : 22.0 KiB (0%)
Language : English
Default : Yes
Forced : No
Alternate group : 3

WWE 205

Complete name : WWE.205.Live.2021.07.02.1080p.WEB.h264-HEEL.mp4
Format : MPEG-4
Format profile : Base Media
Codec ID : isom
File size : 1.53 GiB
Duration : 27 min 32 s
Overall bit rate mode : Variable
Overall bit rate : 7 927 kb/s

Video
ID : 1
Format : AVC
Format/Info : Advanced Video
Duration : 27 min 32 s
Bit rate : 7 808 kb/s
Width : 1 920 pixels
Height : 1 080 pixels
Display aspect ratio : 16:9
Frame rate mode : Constant
Frame rate : 30.000 FPS
Color space : YUV
Chroma subsampling : 4:2:0
Bit depth : 8 bits
Scan type : Progressive
Bits/(Pixel*Frame) : 0.126
Stream size : 1.49 GiB (97%)

WWE 205

Audio
ID : 2
Format : AAC LC
Format/Info : Advanced Audio
Codec ID : mp4a-40-2
Duration : 27 min 32 s
Bit rate mode : Constant
Bit rate : 192 kb/s
Channel(s) : 2 channels
Channel layout : L R
Sampling rate : 48.0 kHz
Frame rate : 46.875 FPS (1024 SPF)
Compression mode : Lossy
Stream size : 37.9 MiB (2%)
Default : Yes
Alternate group : 1

WWE 205

Text
ID : 3
Format : Timed Text
Muxing mode : sbtl
Codec ID : tx3g
Duration : 27 min 23 s
Bit rate mode : Variable
Bit rate : 110 b/s
Stream size : 22.0 KiB (0%)
Language : English
Default : Yes
Forced : No
Alternate group : 3

WWE 205

Complete name : WWE.205.Live.2021.07.02.1080p.WEB.h264-HEEL.mp4
Format : MPEG-4
Format profile : Base Media
Codec ID : isom
File size : 1.53 GiB
Duration : 27 min 32 s
Overall bit rate mode : Variable
Overall bit rate : 7 927 kb/s

Video
ID : 1
Format : AVC
Format/Info : Advanced Video
Duration : 27 min 32 s
Bit rate : 7 808 kb/s
Width : 1 920 pixels
Height : 1 080 pixels
Display aspect ratio : 16:9
Frame rate mode : Constant
Frame rate : 30.000 FPS
Color space : YUV
Chroma subsampling : 4:2:0
Bit depth : 8 bits
Scan type : Progressive
Bits/(Pixel*Frame) : 0.126
Stream size : 1.49 GiB (97%)

WWE 205

Audio
ID : 2
Format : AAC LC
Format/Info : Advanced Audio
Codec ID : mp4a-40-2
Duration : 27 min 32 s
Bit rate mode : Constant
Bit rate : 192 kb/s
Channel(s) : 2 channels
Channel layout : L R
Sampling rate : 48.0 kHz
Frame rate : 46.875 FPS (1024 SPF)
Compression mode : Lossy
Stream size : 37.9 MiB (2%)
Default : Yes
Alternate group : 1

WWE 205

Text
ID : 3
Format : Timed Text
Muxing mode : sbtl
Codec ID : tx3g
Duration : 27 min 23 s
Bit rate mode : Variable
Bit rate : 110 b/s
Stream size : 22.0 KiB (0%)
Language : English
Default : Yes
Forced : No
Alternate group : 3

WWE 205

Complete name : WWE.205.Live.2021.07.02.1080p.WEB.h264-HEEL.mp4
Format : MPEG-4
Format profile : Base Media
Codec ID : isom
File size : 1.53 GiB
Duration : 27 min 32 s
Overall bit rate mode : Variable
Overall bit rate : 7 927 kb/s

Video
ID : 1
Format : AVC
Format/Info : Advanced Video
Duration : 27 min 32 s
Bit rate : 7 808 kb/s
Width : 1 920 pixels
Height : 1 080 pixels
Display aspect ratio : 16:9
Frame rate mode : Constant
Frame rate : 30.000 FPS
Color space : YUV
Chroma subsampling : 4:2:0
Bit depth : 8 bits
Scan type : Progressive
Bits/(Pixel*Frame) : 0.126
Stream size : 1.49 GiB (97%)

WWE 205

Audio
ID : 2
Format : AAC LC
Format/Info : Advanced Audio
Codec ID : mp4a-40-2
Duration : 27 min 32 s
Bit rate mode : Constant
Bit rate : 192 kb/s
Channel(s) : 2 channels
Channel layout : L R
Sampling rate : 48.0 kHz
Frame rate : 46.875 FPS (1024 SPF)
Compression mode : Lossy
Stream size : 37.9 MiB (2%)
Default : Yes
Alternate group : 1

WWE 205

Text
ID : 3
Format : Timed Text
Muxing mode : sbtl
Codec ID : tx3g
Duration : 27 min 23 s
Bit rate mode : Variable
Bit rate : 110 b/s
Stream size : 22.0 KiB (0%)
Language : English
Default : Yes
Forced : No
Alternate group : 3

WWE 205

Complete name : WWE.205.Live.2021.07.02.1080p.WEB.h264-HEEL.mp4
Format : MPEG-4
Format profile : Base Media
Codec ID : isom
File size : 1.53 GiB
Duration : 27 min 32 s
Overall bit rate mode : Variable
Overall bit rate : 7 927 kb/s

Video
ID : 1
Format : AVC
Format/Info : Advanced Video
Duration : 27 min 32 s
Bit rate : 7 808 kb/s
Width : 1 920 pixels
Height : 1 080 pixels
Display aspect ratio : 16:9
Frame rate mode : Constant
Frame rate : 30.000 FPS
Color space : YUV
Chroma subsampling : 4:2:0
Bit depth : 8 bits
Scan type : Progressive
Bits/(Pixel*Frame) : 0.126
Stream size : 1.49 GiB (97%)

WWE 205

Audio
ID : 2
Format : AAC LC
Format/Info : Advanced Audio
Codec ID : mp4a-40-2
Duration : 27 min 32 s
Bit rate mode : Constant
Bit rate : 192 kb/s
Channel(s) : 2 channels
Channel layout : L R
Sampling rate : 48.0 kHz
Frame rate : 46.875 FPS (1024 SPF)
Compression mode : Lossy
Stream size : 37.9 MiB (2%)
Default : Yes
Alternate group : 1

WWE 205

Text
ID : 3
Format : Timed Text
Muxing mode : sbtl
Codec ID : tx3g
Duration : 27 min 23 s
Bit rate mode : Variable
Bit rate : 110 b/s
Stream size : 22.0 KiB (0%)
Language : English
Default : Yes
Forced : No
Alternate group : 3

WWE 205

Complete name : WWE.205.Live.2021.07.02.1080p.WEB.h264-HEEL.mp4
Format : MPEG-4
Format profile : Base Media
Codec ID : isom
File size : 1.53 GiB
Duration : 27 min 32 s
Overall bit rate mode : Variable
Overall bit rate : 7 927 kb/s

Video
ID : 1
Format : AVC
Format/Info : Advanced Video
Duration : 27 min 32 s
Bit rate : 7 808 kb/s
Width : 1 920 pixels
Height : 1 080 pixels
Display aspect ratio : 16:9
Frame rate mode : Constant
Frame rate : 30.000 FPS
Color space : YUV
Chroma subsampling : 4:2:0
Bit depth : 8 bits
Scan type : Progressive
Bits/(Pixel*Frame) : 0.126
Stream size : 1.49 GiB (97%)

WWE 205

Audio
ID : 2
Format : AAC LC
Format/Info : Advanced Audio
Codec ID : mp4a-40-2
Duration : 27 min 32 s
Bit rate mode : Constant
Bit rate : 192 kb/s
Channel(s) : 2 channels
Channel layout : L R
Sampling rate : 48.0 kHz
Frame rate : 46.875 FPS (1024 SPF)
Compression mode : Lossy
Stream size : 37.9 MiB (2%)
Default : Yes
Alternate group : 1

WWE 205

Text
ID : 3
Format : Timed Text
Muxing mode : sbtl
Codec ID : tx3g
Duration : 27 min 23 s
Bit rate mode : Variable
Bit rate : 110 b/s
Stream size : 22.0 KiB (0%)
Language : English
Default : Yes
Forced : No
Alternate group : 3

WWE 205

Complete name : WWE.205.Live.2021.07.02.1080p.WEB.h264-HEEL.mp4
Format : MPEG-4
Format profile : Base Media
Codec ID : isom
File size : 1.53 GiB
Duration : 27 min 32 s
Overall bit rate mode : Variable
Overall bit rate : 7 927 kb/s

Video
ID : 1
Format : AVC
Format/Info : Advanced Video
Duration : 27 min 32 s
Bit rate : 7 808 kb/s
Width : 1 920 pixels
Height : 1 080 pixels
Display aspect ratio : 16:9
Frame rate mode : Constant
Frame rate : 30.000 FPS
Color space : YUV
Chroma subsampling : 4:2:0
Bit depth : 8 bits
Scan type : Progressive
Bits/(Pixel*Frame) : 0.126
Stream size : 1.49 GiB (97%)

WWE 205

Audio
ID : 2
Format : AAC LC
Format/Info : Advanced Audio
Codec ID : mp4a-40-2
Duration : 27 min 32 s
Bit rate mode : Constant
Bit rate : 192 kb/s
Channel(s) : 2 channels
Channel layout : L R
Sampling rate : 48.0 kHz
Frame rate : 46.875 FPS (1024 SPF)
Compression mode : Lossy
Stream size : 37.9 MiB (2%)
Default : Yes
Alternate group : 1

WWE 205

Text
ID : 3
Format : Timed Text
Muxing mode : sbtl
Codec ID : tx3g
Duration : 27 min 23 s
Bit rate mode : Variable
Bit rate : 110 b/s
Stream size : 22.0 KiB (0%)
Language : English
Default : Yes
Forced : No
Alternate group : 3

WWE 205

Complete name : WWE.205.Live.2021.07.02.1080p.WEB.h264-HEEL.mp4
Format : MPEG-4
Format profile : Base Media
Codec ID : isom
File size : 1.53 GiB
Duration : 27 min 32 s
Overall bit rate mode : Variable
Overall bit rate : 7 927 kb/s

Video
ID : 1
Format : AVC
Format/Info : Advanced Video
Duration : 27 min 32 s
Bit rate : 7 808 kb/s
Width : 1 920 pixels
Height : 1 080 pixels
Display aspect ratio : 16:9
Frame rate mode : Constant
Frame rate : 30.000 FPS
Color space : YUV
Chroma subsampling : 4:2:0
Bit depth : 8 bits
Scan type : Progressive
Bits/(Pixel*Frame) : 0.126
Stream size : 1.49 GiB (97%)

WWE 205

Audio
ID : 2
Format : AAC LC
Format/Info : Advanced Audio
Codec ID : mp4a-40-2
Duration : 27 min 32 s
Bit rate mode : Constant
Bit rate : 192 kb/s
Channel(s) : 2 channels
Channel layout : L R
Sampling rate : 48.0 kHz
Frame rate : 46.875 FPS (1024 SPF)
Compression mode : Lossy
Stream size : 37.9 MiB (2%)
Default : Yes
Alternate group : 1

WWE 205

Text
ID : 3
Format : Timed Text
Muxing mode : sbtl
Codec ID : tx3g
Duration : 27 min 23 s
Bit rate mode : Variable
Bit rate : 110 b/s
Stream size : 22.0 KiB (0%)
Language : English
Default : Yes
Forced : No
Alternate group : 3

WWE 205

Complete name : WWE.205.Live.2021.07.02.1080p.WEB.h264-HEEL.mp4
Format : MPEG-4
Format profile : Base Media
Codec ID : isom
File size : 1.53 GiB
Duration : 27 min 32 s
Overall bit rate mode : Variable
Overall bit rate : 7 927 kb/s

Video
ID : 1
Format : AVC
Format/Info : Advanced Video
Duration : 27 min 32 s
Bit rate : 7 808 kb/s
Width : 1 920 pixels
Height : 1 080 pixels
Display aspect ratio : 16:9
Frame rate mode : Constant
Frame rate : 30.000 FPS
Color space : YUV
Chroma subsampling : 4:2:0
Bit depth : 8 bits
Scan type : Progressive
Bits/(Pixel*Frame) : 0.126
Stream size : 1.49 GiB (97%)

WWE 205

Audio
ID : 2
Format : AAC LC
Format/Info : Advanced Audio
Codec ID : mp4a-40-2
Duration : 27 min 32 s
Bit rate mode : Constant
Bit rate : 192 kb/s
Channel(s) : 2 channels
Channel layout : L R
Sampling rate : 48.0 kHz
Frame rate : 46.875 FPS (1024 SPF)
Compression mode : Lossy
Stream size : 37.9 MiB (2%)
Default : Yes
Alternate group : 1

WWE 205

Text
ID : 3
Format : Timed Text
Muxing mode : sbtl
Codec ID : tx3g
Duration : 27 min 23 s
Bit rate mode : Variable
Bit rate : 110 b/s
Stream size : 22.0 KiB (0%)
Language : English
Default : Yes
Forced : No
Alternate group : 3

WWE 205

Complete name : WWE.205.Live.2021.07.02.1080p.WEB.h264-HEEL.mp4
Format : MPEG-4
Format profile : Base Media
Codec ID : isom
File size : 1.53 GiB
Duration : 27 min 32 s
Overall bit rate mode : Variable
Overall bit rate : 7 927 kb/s

Video
ID : 1
Format : AVC
Format/Info : Advanced Video
Duration : 27 min 32 s
Bit rate : 7 808 kb/s
Width : 1 920 pixels
Height : 1 080 pixels
Display aspect ratio : 16:9
Frame rate mode : Constant
Frame rate : 30.000 FPS
Color space : YUV
Chroma subsampling : 4:2:0
Bit depth : 8 bits
Scan type : Progressive
Bits/(Pixel*Frame) : 0.126
Stream size : 1.49 GiB (97%)

WWE 205

Audio
ID : 2
Format : AAC LC
Format/Info : Advanced Audio
Codec ID : mp4a-40-2
Duration : 27 min 32 s
Bit rate mode : Constant
Bit rate : 192 kb/s
Channel(s) : 2 channels
Channel layout : L R
Sampling rate : 48.0 kHz
Frame rate : 46.875 FPS (1024 SPF)
Compression mode : Lossy
Stream size : 37.9 MiB (2%)
Default : Yes
Alternate group : 1

WWE 205

Text
ID : 3
Format : Timed Text
Muxing mode : sbtl
Codec ID : tx3g
Duration : 27 min 23 s
Bit rate mode : Variable
Bit rate : 110 b/s
Stream size : 22.0 KiB (0%)
Language : English
Default : Yes
Forced : No
Alternate group : 3

WWE 205

 

[collapse]

 

 

https://dx-tv.com/

Leave a Reply

Your email address will not be published. Required fields are marked *

This site uses Akismet to reduce spam. Learn how your comment data is processed.