WWE 205 Live 2021 01 15 1080p DX-TV

WWE 205-Live

WWE 205 Live 2021 01 15 1080p DX-TV

WWE 205 Live 2021

 WWE 205 Live 2021

 

Download Links with premium High Speed   

 

 

 

nitroflare.com

http://shrt10.com/kekDRKJu

 

 

rapidgator.net

http://shrt10.com/uV7J7x6pL

 

 

uploaded.net

http://shrt10.com/pPDPT4w

 

 

uploadgig.com

http://shrt10.com/XqVkRcMHG

 

Watch WWE 205 online

 

Server 1

 

 

 

 

WWE 205

 

 

 

 

Server-2

 

 

 

 

watch now

 

 

Uploaded By Site DX-TV.com

 

 

Complete name : WWE.205.Live.2021.01.15.1080p.WEB.h264-HEEL.mp4
Format : MPEG-4
Format profile : Base Media
Codec ID : isom
File size : 1.86 GiB
Duration : 33 min 42 s
Overall bit rate mode : Variable
Overall bit rate : 7 903 kb/s
Writing application : Lavf58.32.104

WWE 205

Video
ID : 1
Format : AVC
Duration : 33 min 42 s
Bit rate : 7 808 kb/s
Width : 1 920 pixels
Height : 1 080 pixels
Display aspect ratio : 16:9
Frame rate mode : Constant
Frame rate : 30.000 FPS
Color space : YUV
Chroma subsampling : 4:2:0
Bit depth : 8 bits
Scan type : Progressive
Bits/(Pixel*Frame) : 0.126
Stream size : 1.81 GiB (97%)

WWE 205

Audio
ID : 2
Format : AAC LC
Format/Info : Advanced Audio
Codec ID : mp4a-40-2
Duration : 33 min 42 s
Bit rate mode : Variable
Bit rate : 192 kb/s
Maximum bit rate : 423 kb/s
Channel(s) : 2 channels
Channel layout : L R
Sampling rate : 48.0 kHz
Frame rate : 46.875 FPS (1024 SPF)
Compression mode : Lossy
Stream size : 46.5 MiB (2%)
Default : Yes
Alternate group : 1

WWE 205

Text
ID : 3
Format : Timed Text
Muxing mode : sbtl
Codec ID : tx3g
Duration : 33 min 39 s
Bit rate mode : Variable
Bit rate : 115 b/s
Stream size : 28.3 KiB (0%)
Language : English
Default : Yes
Forced : No
Alternate group : 3

WWE 205

 

https://dx-tv.com/

You May Also Like

Leave a Reply

Your email address will not be published. Required fields are marked *

This site uses Akismet to reduce spam. Learn how your comment data is processed.