WWE 205 Live 2018 05 29 WWE Network HDTV Ebi /720p Watch / Download

WWE 205 Live 2018 05 29 WWE Network HDTV Ebi /720p Watch / Download

 

 

 

 


dx-tv.com

 

 

 

 

 

 

Complete name : WWE.205.Live.2018.05.29.WWE.Network.HDTV.x264-Ebi.mp4
Format : MPEG-4
Format profile : Base Media / Version 2
Codec ID : mp42
File size : 521 MiB
Duration : 49mn 33s
Overall bit rate : 1 470 Kbps
Encoded date : UTC 2018-05-30 03:10:08
Tagged date : UTC 2018-05-30 03:10:08

Video
ID : 1
Format : AVC
Format/Info : Advanced Video Codec
Codec ID : avc1
Codec ID/Info : Advanced Video Coding
Duration : 49mn 33s
Bit rate mode : Variable
Bit rate : 1 300 Kbps
Width : 712 pixels
Height : 400 pixels
Display aspect ratio : 16:9
Frame rate mode : Constant
Frame rate : 29.970 fps
Color space : YUV
Chroma subsampling : 4:2:0
Bit depth : 8 bits
Scan type : Progressive
Bits/(Pixel*Frame) : 0.152
Stream size : 462 MiB (89%)

Audio
ID : 2
Format : AAC
Format/Info : Advanced Audio Codec
Format profile : LC
Codec ID : 40
Duration : 49mn 33s
Bit rate mode : Variable
Bit rate : 160 Kbps
Channel(s) : 2 channels
Channel positions : Front: L R
Sampling rate : 48.0 KHz
Compression mode : Lossy
Stream size : 56.8 MiB (11%)
Title : Stereo
Encoded date : UTC 2018-05-30 03:10:08
Tagged date : UTC 2018-05-30 03:10:08

 

 

 

 

 
Complete name : WWE.205.Live.2018.05.29.WWE.Network.720p.HDTV.x264-Ebi.mp4
Format : MPEG-4
Format profile : Base Media / Version 2
Codec ID : mp42
File size : 1.63 GiB
Duration : 49mn 33s
Overall bit rate : 4 703 Kbps

Video
ID : 1
Format : AVC
Duration : 49mn 33s
Bit rate mode : Variable
Bit rate : 4 500 Kbps
Width : 1 280 pixels
Height : 720 pixels
Display aspect ratio : 16:9
Frame rate mode : Constant
Frame rate : 29.970 fps
Color space : YUV
Chroma subsampling : 4:2:0
Bit depth : 8 bits
Scan type : Progressive
Bits/(Pixel*Frame) : 0.163
Stream size : 1.56 GiB (96%)

Audio
ID : 2
Format : AAC
Codec ID : 40
Duration : 49mn 33s
Bit rate mode : Variable
Bit rate : 192 Kbps
Channel(s) : 2 channels
Channel positions : Front: L R
Sampling rate : 48.0 KHz
Compression mode : Lossy
Stream size : 68.2 MiB (4%)
Title : Stereo

 

 

 

 

 

WWE 205 Live 2018 05 29 WWE Network HDTV Ebi /720p Watch / Download

 

 

 

 

Watch online

 

 

Waiting finish converting video

 

 

Server 1

 

 

 

 

 

 

 

 

 

 

 

 

 

Server 2

 

 

 

 

 

 

 

 

 

 

 

 

 

 

 

 

Uploaded By Site DX-TV.com

 

 

 

open rar file to see this password

 

 

 

 

The password is : DX-TV.com

 

 

 

 

400p+720p

 

 

 

 

 

Uploaded.net + rapidgator.net

 

 

 

 

 

 
http://shrt10.com/bY4pM

http://shrt10.com/BCAAsPho

http://shrt10.com/LmkhaxiJ

http://shrt10.com/y3Af
 

 

 

 

 

 

 

WWE 205 Live 2018 05 29 WWE Network HDTV Ebi /720p Watch / Download