WWE 10 Biggest Matches in WrestleMania History 2020

10 Biggest Matches in WrestleMania History 2020 DX-TV

 

WWE wrestleMania History

 

 WWE

 

 

WWE 10 Biggest Matches in WrestleMania History 2020

 

Complete name :  .10.Biggest.Matches.in.WrestleMania.History.2020.WEB.H264.DX-TV.mp4
Format : MPEG-4
Format profile : WWE
Codec ID : isom
File size : 2.63 GiB
Duration : 5 h 41 min
Overall bit rate mode : WWE
Overall bit rate : 1 104 kb/s

Video
ID : 1
Format : AVC
Duration : 5 h 41 min
Bit rate : 972 kb/s
Width : 896 pixels
Height : 504 pixels
Display aspect ratio : 16:9
Frame rate mode : WWE
Frame rate : 30.000 FPS
Color space : YUV
Chroma  : 4:2:0
Bit depth : 8 bits
Scan type : WWE
Bits/(Pixel*Frame) : 0.072
Stream size : 2.30 GiB (88%)

WWE wrestleMania History

Audio
ID : 2
Format : AAC LC
Format/Info : WWE
Codec ID : WWE
Duration : 5 h 41 min
Bit rate mode : WWE
Bit rate : 128 kb/s
Maximum bit rate : 143 kb/s
Channel(s) : 2 channels
Channel layout : L R
Sampling rate : 48.0 kHz
Frame rate : 46.875 FPS (1024 SPF)
Compression mode : Lossy
Stream size : 313 MiB (12%)
Default : WWE
Alternate group : 1

 

 

 

WWE wrestleMania  online

 

 

Server 1

 

 

 

 

watch now

 

 

 

 

Server 2

 

 

 

WWE wrestleMania History

 

 

 

 10 Biggest Matches in WrestleMania History 2020

 

 

Uploaded By Site DX-TV.com

 

 

Download with Free Links 

 

 

1fichier.com

https://shrt10.com/mKaoVaPy
https://shrt10.com/jaeMFrq

 

DDL.to

https://shrt10.com/sAeylf8
https://shrt10.com/zUlzF0qX

 

rockfile.co

https://shrt10.com/HbIae6u
https://shrt10.com/JmSw5kv

 wrestleMania History

 

Download with premium account Links 

 

 

Keep2Share

 

 

mixdrop.co

 

 

alfafile.net

 

 

nitroflare.com

 

 

rapidgator.net

 

 

uploadgig.com

 

 

 

dx-tv.com

 

urlfree.net

You May Also Like