West Coast Pro Wrestling 2021 10 08 Replay

West Coast Pro Wrestling 2021 10 08 No Leaf Clover 720p Full Show Replay DX-TV

West Coast Pro Wrestling

 West Coast Pro Wrestling

 

 

 

Download Links with premium High Speed
 

 


 

Dopapk

 

 

Show Links

 

 

 

 

Nitroflare

 

 

Show Links

 

 

Rapidgator

 

 

Show Links

 

 

 

Uploaded
 

 

 

Show Links

 

 

 

 

 

Watch online

 

Server 1

 

 

 

 

West Coast Pro Wrestling

 

 

 

 

Server-2

 

 

 

 

watch now

 

 

 

|Server-3

 

 

 

 

watch now

 

 

Uploaded By Site DX-TV.com

 

 

Open Info Show

 

 

Complete name : West.Coast.Pro.Wrestling.2021.10.08.No.Leaf.Clover.720p.WEB.h264-NCMP.mp4
Format : MPEG-4
Format profile : Base Media
Codec ID : ivc1/mp41)
File size : 1.78 GiB
Duration : 2 h 32 min
Overall bit rate : 1 667 kb/s

Coast Pro Wrestling

Video
ID : 1
Format : AVC
Duration : 2 h 32 min
Bit rate : 1 536 kb/s
Width : 1 280 pixels
Height : 720 pixels
Display aspect ratio : 16:9
Frame rate mode : Variable
Frame rate : 29.970 (29970/1000) FPS
Minimum frame rate : 29.960 FPS
Maximum frame rate : 29.970 FPS
Color space : YUV
Chroma subsampling : 4:2:0
Bit depth : 8 bits
Scan type : Progressive
Bits/(Pixel*Frame) : 0.056
Stream size : 1.63 GiB (92%)

West Coast Pro Wrestling

Audio
ID : 2
Format : AAC LC
Format/Info : Advanced Audio
Codec ID : mp4a-40-2
Duration : 2 h 32 min
Bit rate mode : Constant
Bit rate : 132 kb/s
Channel(s) : 2 channels
Channel layout : L R
Sampling rate : 48.0 kHz
Frame rate : 46.875 FPS (1024 SPF)
Compression mode : Lossy
Stream size : 142 MiB (8%)
Default : Yes
Alternate group : 1

Coast Pro Wrestling

West Coast Pro presents No Leaf Clover LIVE on IWTV!

Daniel Garcia vs Minoru Suzuki
West Coast Pro Wrestling Championship: AJ Gray (c) vs Davey Richards
Alex Zayne vs ??
Sandra Moone vs Madi Wrenkowski
D Rogue, Vinnie Massaro and Kevin Blackwood vs Juicy Finau, Karl Fredericks and Yuya Uemura
Jacob Fatu vs Steven Tresario
The West Coast Wrecking Crew vs Alex Coughlin and Kevin Knight
Starboy Charlie and ??? vs Big Ugly and Titus Alexander

 

Video
ID : 1
Format : AVC
Duration : 2 h 32 min
Bit rate : 1 536 kb/s
Width : 1 280 pixels
Height : 720 pixels
Display aspect ratio : 16:9
Frame rate mode : Variable
Frame rate : 29.970 (29970/1000) FPS
Minimum frame rate : 29.960 FPS
Maximum frame rate : 29.970 FPS
Color space : YUV
Chroma subsampling : 4:2:0
Bit depth : 8 bits
Scan type : Progressive
Bits/(Pixel*Frame) : 0.056
Stream size : 1.63 GiB (92%)

West Coast Pro Wrestling

Audio
ID : 2
Format : AAC LC
Format/Info : Advanced Audio
Codec ID : mp4a-40-2
Duration : 2 h 32 min
Bit rate mode : Constant
Bit rate : 132 kb/s
Channel(s) : 2 channels
Channel layout : L R
Sampling rate : 48.0 kHz
Frame rate : 46.875 FPS (1024 SPF)
Compression mode : Lossy
Stream size : 142 MiB (8%)
Default : Yes
Alternate group : 1

https://dx-tv.com/

 

 

 

 

 

You May Also Like

Leave a Reply

Your email address will not be published. Required fields are marked *

This site uses Akismet to reduce spam. Learn how your comment data is processed.