Watch wXw World Tag Team Leauge Night 2 2018 PPV 720p WEB 4FuN

Watch wXw World Tag Team Leauge Night 2 2018 PPV 720p WEB 4FuN

 

 

 

 


 

 

 

dx-tv.com

 

 

 

Complete name : wXw.World.Tag.Team.Leauge.Night.2.2018.PPV.720p.WEB.x264-4FuN.mp4
Format : MPEG-4
Format profile : Base Media
File size : 3.23 GiB
Duration : 2 h 41 min
Overall bit rate mode : Variable
Overall bit rate : 2 865 kb/s
Encoded date : UTC 2018-10-12 18:43:36
Tagged date : UTC 2018-10-12 18:43:36

Video
ID : 1
Format : AVC
Format/Info : Advanced Video Codec
Codec ID/Info : Advanced Video Coding
Duration : 2 h 41 min
Bit rate : 2 722 kb/s
Width : 1 280 pixels
Height : 720 pixels
Display aspect ratio : 16:9
Frame rate mode : Constant
Frame rate : 50.000 FPS
Color space : YUV
Chroma subsampling : 4:2:0
Bit depth : 8 bits
Scan type : Progressive
Bits/(Pixel*Frame) : 0.059
Stream size : 3.07 GiB (95%)
Encoded date : UTC 2018-10-12 18:43:36
Tagged date : UTC 2018-10-12 18:43:36
Color range : Limited
Color primaries : BT.709
Transfer characteristics : BT.709
Matrix coefficients : BT.709

Audio
ID : 2
Format : AAC
Format/Info : Advanced Audio Codec
Format profile : LC
Codec ID : mp4a-40-2
Duration : 2 h 41 min
Bit rate mode : Variable
Bit rate : 137 kb/s
Channel(s) : 2 channels
Channel positions : Front: L R
Sampling rate : 48.0 kHz
Frame rate : 46.875 FPS (1024 SPF)
Compression mode : Lossy
Stream size : 158 MiB (5%)
Encoded date : UTC 2018-10-12 18:43:36
Tagged date : UTC 2018-10-12 18:43:36

 

 

Watch wXw World Tag Team Leauge Night 2 2018 PPV 720p WEB 4FuN

 

 

 

 

Watch online

 

 

Waiting finish converting video

 

 

Server 1

 

 

 

 

 

 

 

 

 

 

 

 

 

 

 

Server 2

 

 

 

 

 

 

 

 

 

 

 

 

 

 

 

 

Uploaded By Site DX-TV.com

 

 

 

open rar file to see this password

 

 

 

 

The password : DX-TV.com

 

 

Uploaded.net + rapidgator.net

 

 

 

 

 

http://shrt10.com/bY2VjTF
 

 

 

 

http://shrt10.com/ERBpe6vy
 

 

 

 

 

Watch Watch wXw World Tag Team Leauge Night 2 2018 PPV 720p WEB 4FuN

Leave a Reply

This site uses Akismet to reduce spam. Learn how your comment data is processed.