Watch wXw 2018 03 08 ENG Inner Circle 5 WEB NCMP /720p

Watch wXw 2018 03 08 ENG Inner Circle 5 WEB NCMP /720p

 

 

 

s

 

 

 

wwe

 

 

 

 

 

 

 
Complete name : wXw.2018.03.08.ENG.Inner.Circle.5.WEB.h264-NCMP.mp4
Format : MPEG-4
Format profile : Base Media
Codec ID : isom
File size : 894 MiB
Duration : 1h 18mn
Overall bit rate : 1 594 Kbps
Writing application : Lavf55.12.100

Video
ID : 2
Format : AVC
Format/Info : Advanced Video Codec
Codec ID : avc1
Codec ID/Info : Advanced Video Coding
Duration : 1h 18mn
Bit rate mode : Variable
Bit rate : 1 495 Kbps
Width : 854 pixels
Height : 480 pixels
Display aspect ratio : 16:9
Frame rate mode : Constant
Frame rate : 29.970 fps
Color space : YUV
Chroma subsampling : 4:2:0
Bit depth : 8 bits
Scan type : Progressive
Bits/(Pixel*Frame) : 0.122
Stream size : 839 MiB (94%)
Audio
ID : 1
Format : AAC
Format/Info : Advanced Audio Codec
Format profile : LC
Codec ID : 40
Duration : 1h 18mn
Bit rate mode : Constant
Bit rate : 91.6 Kbps
Channel(s) : 2 channels
Channel positions : Front: L R
Sampling rate : 48.0 KHz
Compression mode : Lossy
Stream size : 51.4 MiB (6%)

 

 

 

 

 

 

 
Complete name : wXw.2018.03.08.ENG.Inner.Circle.5.720p.WEB.h264-NCMP.mp4
Format : MPEG-4
Format profile : Base Media
Codec ID : isom
File size : 1.47 GiB
Duration : 1h 18mn
Overall bit rate : 2 688 Kbps
Writing application : Lavf55.12.100

Video
ID : 2
Format : AVC
Format/Info : Advanced Video Codec
Codec ID : avc1
Codec ID/Info : Advanced Video Coding
Duration : 1h 18mn
Bit rate mode : Variable
Bit rate : 2 590 Kbps
Width : 1 280 pixels
Height : 720 pixels
Display aspect ratio : 16:9
Frame rate mode : Constant
Frame rate : 29.970 fps
Color space : YUV
Chroma subsampling : 4:2:0
Bit depth : 8 bits
Scan type : Progressive
Bits/(Pixel*Frame) : 0.094
Stream size : 1.42 GiB (96%)

Audio
ID : 1
Format : AAC
Format/Info : Advanced Audio Codec
Format profile : LC
Codec ID : 40
Duration : 1h 18mn
Bit rate mode : Constant
Bit rate : 91.6 Kbps
Channel(s) : 2 channels
Channel positions : Front: L R
Sampling rate : 48.0 KHz
Compression mode : Lossy
Stream size : 51.4 MiB (3%)

 

 

 

 

 

Watch wXw 2018 03 08 ENG Inner Circle 5 WEB NCMP /720p

 

 

 

 

Watch online

 

 

Waiting finish converting video

 

 

Server 1

 

 

 

 

 

 

 

 

 

 

 

 

 

 

 

 

 

Server 2

 

 

 

 

 

 


 

 

 

 

 

Uploaded By Site DX-TV.com

 

 

 

open rar file to see this password

 

 

 

 

The password is : DX-TV.com

 

 

 

 

400p+720p

 

 

 

 

 

Uploaded.net + rapidgator.net

 

 

 

 

 

http://shrt10.com/OAgjYi

 

 

http://shrt10.com/WfxRAjVd

 

 

http://shrt10.com/w3bTw56

 

 

http://shrt10.com/HyQIF6v

 

 

 

 

 

 

Watch wXw 2018 03 08 ENG Inner Circle 5 WEB NCMP /720p