Watch WWWE 205 Live 2020 11 27 Full Show DX-TV

Watch WWWE 205 Live 2020 11 27 1080p DX-TV

Watch WWWE 205 Live

 

 Watch WWWE 205 Live

 

[su_expand more_text=”Show More Info” less_text=”Close all Info” height=”30″ text_color=”#000000″ link_color=”#e25f8b” link_style=”button” more_icon=”icon: arrow-down” less_icon=”icon: arrow-up”]

 

Complete name : WWE.205.Live.2020.11.27.1080p.WEB.h264-HEEL.mp4
Format : MPEG-4
Format profile : Base Media
Codec ID : isom
File size : 1.16 GiB
Duration : 28 min 24 s
Overall bit rate mode : Variable
Overall bit rate : 5 867 kb/s
Writing application : Lavf58.32.104

Watch WWWE 205 Live

Video
ID : 1
Format : AVC
Duration : 28 min 24 s
Bit rate : 5 731 kb/s
Width : 1 920 pixels
Height : 1 080 pixels
Display aspect ratio : 16:9
Frame rate mode : Variable
Frame rate : 30.000 FPS
Minimum frame rate : 29.412 FPS
Maximum frame rate : 30.303 FPS
Color space : YUV
Chroma subsampling : 4:2:0
Bit depth : 8 bits
Scan type : Progressive
Bits/(Pixel*Frame) : 0.092
Stream size : 1.14 GiB (98%)
Codec configuration box : avc

Watch WWWE 205 Live

Audio
ID : 2
Format : AAC LC
Format/Info : Advanced Audio
Codec ID : mp4a-40-2
Duration : 28 min 24 s
Bit rate mode : Variable
Bit rate : 125 kb/s
Maximum bit rate : 132 kb/s
Channel(s) : 2 channels
Channel layout : L R
Sampling rate : 48.0 kHz
Frame rate : 46.875 FPS (1024 SPF)
Compression mode : Lossy
Stream size : 25.5 MiB (2%)
Default : Yes
Alternate group : 1

Text #1
ID : 1-CC1
Format : EIA-608
Muxing mode : SCTE 128 / DTVCC Transport
Muxing mode, more info : Muxed in Video #1
Duration : 28 min 24 s
Bit rate mode : Constant
Stream size : 0.00 Byte (0%)
CaptionServiceName : CC1

Watch WWWE 205 Live

Text #2
ID : 1-CC3
Format : EIA-608
Muxing mode : SCTE 128 / DTVCC Transport
Muxing mode, more info : Muxed in Video #1
Duration : 28 min 24 s
Bit rate mode : Constant
Stream size : 0.00 Byte (0%)
CaptionServiceName : CC3

Text #3
ID : 1-1
Format : EIA-708
Muxing mode : SCTE 128 / DTVCC Transport
Muxing mode, more info : Muxed in Video #1
Duration : 28 min 24 s
Bit rate mode : Constant
Stream size : 0.00 Byte (0%)

 

 

[/su_expand]

 

 

Watch online

 

 

Server 1

 

 

 

 

Watch WWWE 205 Live

 

 

 

 

Server-2

 

 

 

 

watch now

 

 

 

 

Uploaded By Site DX-TV.com

 

 

 

 

Download Free Links with normal and high Speed [ more 14 hosts ]  

 

[su_expand more_text=”Show Hosts Info” less_text=”Close all Info” height=”30″ text_color=”#000000″ link_color=”#e25f8b” link_style=”button” more_icon=”icon: arrow-down” less_icon=”icon: arrow-up”]

 

 

hexupload.net – clicknupload.co – www.multiup.org

– uptobox.com – anonfiles.com – userscloud.com –

dropapk.to alfafile.net – ddownload.com – rockfile.co

– 1fichier.com – filedown.org – katfile.com – filerio.in

 

 

[/su_expand]

 

http://shrt10.com/DXFMm9aGN
http://shrt10.com/ZiWVYCA6D
http://shrt10.com/refx8P34
http://shrt10.com/H9LnXB
http://shrt10.com/z9R1uQ
http://shrt10.com/aMJRM4
http://shrt10.com/8H7TEE
http://shrt10.com/H9U5Rf

 

 

 

 

 

Download Links with premium High Speed   

 

 

 

 

dropapk.to

 

 

 

nitroflare.com

http://shrt10.com/PfZsojg5

 

 

rapidgator.net

http://shrt10.com/KZF48FrR

 

 

uploaded.net

 

 

 

uploadgig.com

 

 

https://dx-tv.com/wwe-survivor-series-2020-ppv-free-full-show-online-720p/

Leave a Reply

Your email address will not be published. Required fields are marked *

This site uses Akismet to reduce spam. Learn how your comment data is processed.