Watch WWE WrestleMania Backlash 2021 Online Free PPV

Watch WWE WrestleMania Backlash 2021 Online Free PPV WEB H264 DX-TV

Watch WWE WrestleMania Backlash 2021 Online Free

 Watch WWE WrestleMania Backlash 2021 Online Free

 

 

 

Download Links with High Speed


Dopapk

 

 

Show Links

 

http://shrt10.com/8lMhp

 

[collapse]

 

 

Nitroflare

 

 

Show Links

 

http://shrt10.com/4TLKG

 

[collapse]

 

 

Rapidgator

 

 

Show Links

 

http://shrt10.com/6izj2OQN

 

[collapse]

 

 

Uploaded

 

 

Show Links

 

http://shrt10.com/W9Gf8fY

 

[collapse]

 

 

Watch online

 

Server 1

 

 

 

 

Watch WWE WrestleMania Backlash 2021 Online Free

 

 

 

 

Server-2

 

 

 

 

watch now

 

 

 

|Server-3

 

 

 

 

watch now

 

 

Uploaded By Site DX-TV.com

 

 

Show Info This Show

Watch WWE WrestleMania Backlash 2021 Online Free

 

Complete name : WWE.WrestleMania.Backlash.2021 PPV WEB H264 DX-TV.com.mp4
Format : MPEG-4
Format profile : Base Media
Codec ID : isom
File size : 2.19 GiB
Duration : 3 h 3 min
Overall bit rate mode : Variable
Overall bit rate : 1 706 kb/s
Law rating : N/A

Video
ID : 1
Format : AVC
Format/Info : Advanced Video
Duration : 3 h 3 min
Bit rate mode : Variable
Bit rate : 1 573 kb/s
Maximum bit rate : 1 663 kb/s
Width : 896 pixels
Height : 504 pixels
Display aspect ratio : 16:9
Frame rate mode : Variable
Frame rate : 30.000 FPS
Minimum frame rate : 29.412 FPS
Maximum frame rate : 30.303 FPS
Standard : NTSC
Color space : YUV
Chroma subsampling : 4:2:0
Bit depth : 8 bits
Scan type : Progressive
Bits/(Pixel*Frame) : 0.116
Stream size : 2.02 GiB (92%)
Color range : Limited
Color primaries : BT.709
Transfer characteristics : BT.709
Matrix coefficients : BT.709
Codec configuration box : avcC

Watch WWE WrestleMania Backlash 2021 

Audio
ID : 2
Format : AAC LC
Format/Info : Advanced Audio
Codec ID : mp4a-40-2
Duration : 3 h 3 min
Bit rate mode : Variable
Bit rate : 125 kb/s
Maximum bit rate : 130 kb/s
Channel(s) : 2 channels
Channel layout : L R
Sampling rate : 48.0 kHz
Frame rate : 46.875 FPS (1024 SPF)
Compression mode : Lossy
Stream size : 165 MiB (7%)
Default : Yes
Alternate group : 1

Text #1
ID : 1-CC1
Format : EIA-608
Muxing mode : SCTE 128 / DTVCC Transport
Muxing mode, more info : Muxed in Video #1
Duration : 3 h 3 min
Bit rate mode : Constant
Stream size : 0.00 Byte (0%)
CaptionServiceName : CC1

Text #2
ID : 1-CC3
Format : EIA-608
Muxing mode : SCTE 128 / DTVCC Transport
Muxing mode, more info : Muxed in Video #1
Duration : 3 h 3 min
Bit rate mode : Constant
Stream size : 0.00 Byte (0%)
CaptionServiceName : CC3

Watch WWE WrestleMania Backlash 2021 

Text #3
ID : 1-1
Format : EIA-708
Muxing mode : SCTE 128 / DTVCC Transport
Muxing mode, more info : Muxed in Video #1
Duration : 3 h 3 min
Bit rate mode : Constant
Stream size : 0.00 Byte (0%)

Text #4
ID : 1-2
Format : EIA-708
Muxing mode : SCTE 128 / DTVCC Transport
Muxing mode, more info : Muxed in Video #1
Duration : 3 h 3 min
Bit rate mode : Constant
Stream size : 0.00 Byte (0%)

 

Watch WWE WrestleMania Backlash 2021 

[collapse]

 

 

https://dx-tv.com/

Leave a Reply

Your email address will not be published. Required fields are marked *

This site uses Akismet to reduce spam. Learn how your comment data is processed.