Watch WWE Worlds Collide NXT vs NXT UK 2020 720p

Watch WWE Worlds Collide NXT vs NXT UK 2020 01 25 720p Online DX-TV

 

 

WWE

 

 

 

 

dx-tv.com

 

 

 

 

Watch WWE Worlds Collide NXT vs NXT UK 2020 720p

 

 

 

 

 

Complete name : WWE.Worlds.Collide.2020.01.25.NXT.vs.NXT.UK.720p.WEB.h264-HEEL.mp4
Format : MPEG-4
Format profile : Base Media
File size : 4.62 GiB
Duration : 2 h 26 min
Overall bit rate mode : Variable
Overall bit rate : 4 511 kb/s
Writing application : Lavf58.32.104

Video
ID : 1
Format : AVC
Duration : 2 h 26 min
Bit rate mode : Variable
Bit rate : 4 376 kb/s
Maximum bit rate : 4 809 kb/s
Width : 1 280 pixels
Height : 720 pixels
Display aspect ratio : 16:9
Frame rate mode : Variable
Frame rate : 30.000 FPS
Minimum frame rate : 29.412 FPS
Maximum frame rate : 30.303 FPS
Standard : NTSC
Color space : YUV
Chroma subsampling : 4:2:0
Bit depth : 8 bits
Scan type : Progressive
Bits/(Pixel*Frame) : 0.158
Stream size : 4.48 GiB (97%)
Color range : Limited
Color primaries : BT.709
Transfer characteristics : BT.709
Matrix coefficients : BT.709
Codec configuration box : avcC

Audio
ID : 2
Format : AAC LC
Format/Info : Advanced Audio Codec Low Complexity
Codec ID : mp4a-40-2
Duration : 2 h 26 min
Bit rate mode : Variable
Bit rate : 125 kb/s
Maximum bit rate : 131 kb/s
Channel(s) : 2 channels
Channel layout : L R
Sampling rate : 48.0 kHz
Frame rate : 46.875 FPS (1024 SPF)
Compression mode : Lossy
Stream size : 132 MiB (3%)
Default : Yes
Alternate group : 1

Text #1
ID : 1-CC1
Format : EIA-608
Muxing mode : SCTE 128 / DTVCC Transport
Muxing mode, more info : Muxed in Video #1
Duration : 2 h 26 min
Bit rate mode : Constant
Stream size : 0.00 Byte (0%)
CaptionServiceName : CC1

Text #2
ID : 1-CC3
Format : EIA-608
Muxing mode : SCTE 128 / DTVCC Transport
Muxing mode, more info : Muxed in Video #1
Duration : 2 h 26 min
Bit rate mode : Constant
Stream size : 0.00 Byte (0%)
CaptionServiceName : CC3

Text #3
ID : 1-1
Format : EIA-708
Muxing mode : SCTE 128 / DTVCC Transport
Muxing mode, more info : Muxed in Video #1
Duration : 2 h 26 min
Bit rate mode : Constant
Stream size : 0.00 Byte (0%)

 

 

 

 

 

 

Watch online

 

 

Waiting finish converting video

 

 

Server 1

 

 

 

watch now

 

 

 

 

Watch WWE Worlds Collide NXT vs NXT UK 2020 720p

 

 

 

Uploaded By Site DX-TV.com

 

 

 

 

 

Download VIP Members FTP server Download 1 Link and Free Links 

 

 

 

Limited Time will be removed after 90 days if you need available again pm email admin

 

[member]
 

FTP Link Download high speed

[/member]

1fichier.com 

 

https://shrt10.com/MAwbxzF
https://shrt10.com/n4Hzp
https://shrt10.com/khMPd
https://shrt10.com/WwcoxE
https://shrt10.com/rjWrSN

 

dailyuploads.net

 

https://shrt10.com/Eby7G
https://shrt10.com/g0VLEG
https://shrt10.com/o13QyKpTQ
https://shrt10.com/93r5NE
https://shrt10.com/S8OU8b7S

 

DDL.to

 

https://shrt10.com/EoUeJ
https://shrt10.com/ernUN
https://shrt10.com/PC1ipe
https://shrt10.com/TDEeh8sx
https://shrt10.com/tTGxaIw7T

 

earn4files.com

 

https://shrt10.com/mgeDk
https://shrt10.com/nyH6Tj2l
https://shrt10.com/JliiR
https://shrt10.com/yxQQP9
https://shrt10.com/wJhPFJjMn

 

filerio.in

 

https://shrt10.com/jP1vb0Y
https://shrt10.com/rKgfySe
https://shrt10.com/QL2hGzv
https://shrt10.com/KNIrLCf9I
https://shrt10.com/Mhr9H

 

katfile.com

 

https://shrt10.com/4rgpvm
https://shrt10.com/s2O7wP9
https://shrt10.com/nfihNzPvp
https://shrt10.com/DQSUC82v
https://shrt10.com/lEuYMao

 

rockfile.co

 

https://shrt10.com/v1RIA19
https://shrt10.com/nxjjn
https://shrt10.com/aZjqvF
https://shrt10.com/qmlh9Vhf
https://shrt10.com/d34LuEn

 

Ubloadbank.com

 

https://shrt10.com/7YXoxac
https://shrt10.com/tr1Xa
https://shrt10.com/qaQrU
https://shrt10.com/rrieiI3
https://shrt10.com/aQTpg8Wp

 

Download with premium account Links 

 

 

nitroflare.com

 

 

rapidgator.net

 

 

uploaded.net

 

https://shrt10.com/XZR8gQ
https://shrt10.com/vHERx60rS
https://shrt10.com/P73PeWu
https://shrt10.com/Rvy4TSj
https://shrt10.com/cOAHbfB