Watch WWE Worlds Collide 2019 05 01 Brands Collide WEB HEEL full show free mp4

 

 

 

 


 

 

 

 

 

 

 

 

dx-tv.com

 

 

 

Title: WWE.Worlds.Collide.2019.05.01.Brands.Collide.WEB.h264-HEEL 
Released: 2019.05.01 
Source: WWE Network 
Resolution: 896 x 504 @ 29.970 FPS 
Video: H.264 @ 1800 kbps 
Audio: AAC @ 96 kbps 
Size: 771 MB 
Runtime: 59mn 47sec 

 

Complete name : WWE.Worlds.Collide.2019.05.01.Brands.Collide.WEB.h264-HEEL.mp4
Format : MPEG-4
Format profile : Base Media
Codec ID : isom (isom/iso2/avc1/mp41)
File size : 772 MiB
Duration : 59 min 47 s
Overall bit rate mode : Variable
Overall bit rate : 1 804 kb/s
Writing application : Lavf58.26.101

Video
ID : 1
Format : AVC
Format/Info : Advanced Video Codec
Format settings, Reference : 4 frames
Codec ID : avc1
Codec ID/Info : Advanced Video Coding
Duration : 59 min 47 s
Duration_FirstFrame : 1 ms
Bit rate mode : Constant
Bit rate : 1 704 kb/s
Width : 896 pixels
Height : 504 pixels
Display aspect ratio : 16:9
Frame rate mode : Constant
Frame rate : 29.970 (30000/1001) FPS
Color space : YUV
Chroma subsampling : 4:2:0
Bit depth : 8 bits
Scan type : Progressive
Bits/(Pixel*Frame) : 0.126
Stream size : 729 MiB (94%)
Codec configuration box : avcC

Audio
ID : 2
Format : AAC LC
Format/Info : Advanced Audio Codec Low Complexity
Codec ID : mp4a-40-2
Duration : 59 min 47 s
Bit rate mode : Variable
Bit rate : 93.5 kb/s
Maximum bit rate : 96.8 kb/s
Channel(s) : 2 channels
Channel layout : L R
Sampling rate : 48.0 kHz
Frame rate : 46.875 FPS (1024 SPF)
Compression mode : Lossy
Stream size : 40.0 MiB (5%)
Language : English
Default : Yes
Alternate group : 1
 

 

 

 

 


 

 

Watch WWE Worlds Collide 2019 05 01 Brands Collide WEB HEEL full show free mp4

 

 

 

 

Watch online

 

 

Waiting finish converting video

 

 

Server 1

 

 

 

 

 


 

 


 


 

 

Uploaded By Site DX-TV.com

 

 

 

open rar file to see this password

 

 

 

 

The password : DX-TV.com

 

 

 

 

Uploaded.net + rapidgator.net + katfile.com

 

 

 

 


 

https://shrt10.com/5EFl
 

 

 
https://shrt10.com/YwuDg
 

 

 
https://shrt10.com/mzJZ61t
 

 

 
https://shrt10.com/8555VsD

 

 

 

 

 

Watch WWE Worlds Collide 2019 05 01 Brands Collide WEB HEEL full show free mp4