Watch WWE Worlds Collide 2019 04 17 WEB HEEL 720p free full show

 

 

 

blank

 

 

dx-tv.com

 

 

Complete name : WWE.Worlds.Collide.2019.04.17.Cruiserweights.Collide.720p.WEB.h264-HEEL.mp4
Format : MPEG-4
Format profile : Base Media
Codec ID : isom
File size : 2.19 GiB
Duration : 1h 9mn
Overall bit rate : 4 504 Kbps
Writing application : Lavf58.26.101

Video
ID : 1
Format : AVC
Format/Info : Advanced Video Codec
Format settings, ReFrames : 4 frames
Codec ID : avc1
Codec ID/Info : Advanced Video Coding
Duration : 1h 9mn
Bit rate mode : Constant
Bit rate : 4 372 Kbps
Width : 1 280 pixels
Height : 720 pixels
Display aspect ratio : 16:9
Frame rate mode : Variable
Frame rate : 29.970 fps
Minimum frame rate : 18.561 fps
Maximum frame rate : 29.970 fps
Color space : YUV
Chroma subsampling : 4:2:0
Bit depth : 8 bits
Scan type : Progressive
Bits/(Pixel*Frame) : 0.158
Stream size : 2.13 GiB (97%)

Audio
ID : 2
Format : AAC
Format/Info : Advanced Audio Codec
Format profile : LC
Codec ID : 40
Duration : 1h 9mn
Bit rate mode : Constant
Bit rate : 125 Kbps
Channel(s) : 2 channels
Channel positions : Front: L R
Sampling rate : 48.0 KHz
Compression mode : Lossy
Stream size : 62.6 MiB (3%)
Language : English

Text
ID : 1-608-1
Format : EIA-608
Muxing mode : AVC / SCTE 128 / DTVCC Transport
Muxing mode, more info : Muxed in Video #1
Duration : 1h 9mn
Stream size : 0.00 Byte (0%)
ContentInfo : No content

 

 

 

 

 

 

 


 

 

Watch WWE Worlds Collide 2019 04 17 WEB HEEL 720p free full show

 

 

 

 

Watch online

 

 

Waiting finish converting video

 

 

Server 1

 

 

 

 

 

 

 

 

 


 

 

 

Server 2

 

 

 

 

 


 

 

 


 

 

Uploaded By Site DX-TV.com

 

 

 

open rar file to see this password

 

 

 

 

The password : DX-TV.com

 

 

 

 

Uploaded.net + rapidgator.net

 

 

 

 


 

 

 
https://shrt10.com/sN2V
 

 

 
https://shrt10.com/IOf6F
 

 

 
https://shrt10.com/ZsB19
 

 

 
https://shrt10.com/EjHrbBKh
 

 

 

 

 

Watch WWE Worlds Collide 2019 04 17 WEB HEEL 720p free full show