Watch WWE Worlds Collide 2019 04 14 NXT vs NXT Alumni WEB HEEL /720p

 

 

 

 


 

 

 

dx-tv.com

 

 

Complete name : WWE.Worlds.Collide.2019.04.14.NXT.vs.NXT.Alumni.WEB.h264-HEEL.mp4
Format : MPEG-4
Format profile : Base Media
Codec ID : isom
File size : 745 MiB
Duration : 58mn 31s
Overall bit rate : 1 780 Kbps

Video
ID : 1
Format : AVC
Format/Info : Advanced Video Codec
Format settings, CABAC : Yes
Format settings, ReFrames : 3 frames
Codec ID : avc1
Codec ID/Info : Advanced Video Coding
Duration : 58mn 31s
Bit rate mode : Variable
Bit rate : 1 680 Kbps
Maximum bit rate : 2 125 Kbps
Width : 960 pixels
Height : 540 pixels
Display aspect ratio : 16:9
Frame rate mode : Constant
Frame rate : 29.970 fps
Color space : YUV
Chroma subsampling : 4:2:0
Bit depth : 8 bits
Scan type : Progressive
Bits/(Pixel*Frame) : 0.108
Stream size : 703 MiB (94%)

Audio
ID : 2
Format : AAC
Format/Info : Advanced Audio Codec
Format profile : LC
Codec ID : 40
Duration : 58mn 31s
Bit rate mode : Variable
Bit rate : 93.5 Kbps
Maximum bit rate : 94.9 Kbps
Channel(s) : 2 channels
Channel positions : Front: L R
Sampling rate : 48.0 KHz
Compression mode : Lossy
Stream size : 39.1 MiB (5%)

 

 

 

 

 

 

 


 

 

 

Watch WWE Worlds Collide 2019 04 14 NXT vs NXT Alumni WEB HEEL /720p

 

 

 

 

Watch online

 

 

Waiting finish converting video

 

 

Server 1

 

 

 

 

 

 

 

 

 


 

 

 

 

Server 2

 

 

 

 

 

 

 


 

 


 

 

 

Uploaded By Site DX-TV.com

 

 

 

open rar file to see this password

 

 

 

 

The password : DX-TV.com

 

 

 

 

Uploaded.net + rapidgator.net

 

 

 

 


 

 

https://shrt10.com/7MdlydCd
 

 

 
https://shrt10.com/vC0tW
 

 

 
https://shrt10.com/T3cWIaL7
 

 

 
https://shrt10.com/DgW3Vc
 

 

 

 

 

Watch WWE Worlds Collide 2019 04 14 NXT vs NXT Alumni WEB HEEL /720p