Watch WWE Uncool with Alexa Bliss E11 Jaret Reddick DX-TV

Watch WWE Uncool with Alexa Bliss E11 Jaret Reddick 1080p DX-TV

Watch WWE Uncool with Alexa Bliss

 

 Watch WWE Uncool with Alexa Bliss

 

[su_expand more_text=”Show More Info” less_text=”Close all Info” height=”30″ text_color=”#000000″ link_color=”#e25f8b” link_style=”button” more_icon=”icon: arrow-down” less_icon=”icon: arrow-up”]

Complete name : WWE.Uncool.with.Alexa.Bliss.E11.Jaret.Reddick.1080p.WEB.h264-HEEL.mp4
Format : MPEG-4
Format profile : Base Media
Codec ID : isom
File size : 3.65 GiB
Duration : 1 h 5 min
Overall bit rate mode : Variable
Overall bit rate : 7 962 kb/s
Writing application : Lavf58.32.104

Watch WWE Uncool with Alexa Bliss

Video
ID : 1
Format : AVC
Duration : 1 h 5 min
Bit rate : 7 808 kb/s
Width : 1 920 pixels
Height : 1 080 pixels
Display aspect ratio : 16:9
Frame rate mode : Constant
Frame rate : 30.000 FPS
Color space : YUV
Chroma subsampling : 4:2:0
Bit depth : 8 bits
Scan type : Progressive
Bits/(Pixel*Frame) : 0.126
Stream size : 3.55 GiB (97%)

WWE Uncool with Alexa Bliss

Audio
ID : 2
Format : AAC LC
Format/Info : Advanced Audio
Codec ID : mp4a-40-2
Duration : 1 h 5 min
Bit rate mode : Variable
Bit rate : 192 kb/s
Maximum bit rate : 235 kb/s
Channel(s) : 2 channels
Channel layout : L R
Sampling rate : 48.0 kHz
Frame rate : 46.875 FPS
Compression mode : Lossy
Stream size : 90.3 MiB (2%)
Default : Yes
Alternate group : 1

 Uncool with Alexa Bliss

Audio
ID : 2
Format : AAC LC
Format/Info : Advanced Audio
Codec ID : mp4a-40-2
Duration : 1 h 5 min
Bit rate mode : Variable
Bit rate : 192 kb/s
Maximum bit rate : 235 kb/s
Channel(s) : 2 channels
Channel layout : L R
Sampling rate : 48.0 kHz
Frame rate : 46.875 FPS
Compression mode : Lossy
Stream size : 90.3 MiB (2%)
Default : Yes
Alternate group : 1

[/su_expand]

 

 

Watch online

 

Server 1

 

 

 

 

Watch WWE Uncool with Alexa Bliss

 

 

 

 

Server-2

 

 

 

 

watch now

 

 

 

 

Uploaded By Site DX-TV.com

 WWE Uncool with Alexa Bliss

 

Download Links with premium High Speed   

 

 

 

 

dropapk.to

 

 

 

nitroflare.com

 

 

 

rapidgator.net

 

 

 

uploaded.net

 

 

 

uploadgig.com

 

 

https://dx-tv.com/wwe-steve-austins-broken-skull-sessions-s01e09-kurt-angle/

Leave a Reply

Your email address will not be published. Required fields are marked *

This site uses Akismet to reduce spam. Learn how your comment data is processed.