Watch WWE TLC 2020 Online Free DX-TV

Watch WWE TLC 2020 Online Free DX-TV

Watch WWE TLC 2020 Online

 Watch WWE TLC 2020 Online

 

Download Links with premium High Speed   

 

 

dropapk.to

http://shrt10.com/nQ4zKEw7

 

 

nitroflare.com

http://shrt10.com/5yDCheqTQ

 

 

rapidgator.net

http://shrt10.com/ijgpS2

 

 

uploaded.net

http://shrt10.com/wOcnzZFR

 

 

uploadgig.com

http://shrt10.com/frucHcOr

 

Watch online

 

Server 1

 

 

 

 

Watch WWE TLC 2020 Online

 

 

 

 

Server-2

 

 

 

 

watch now

 

 

Uploaded By Site DX-TV.com

 

 

 

[su_expand more_text=”Show More Info” less_text=”Close all Info” height=”50″ text_color=”#000000″ link_color=”#e25f8b” link_style=”button” more_icon=”icon: arrow-down” less_icon=”icon: arrow-up”]
Complete name : WWE.TLC.2020.PPV.WEB.h264-HEEL.mp4
Format : MPEG-4
Format profile : Base Media
Codec ID : isom
File size : 2.21 GiB
Duration : 3 h 0 min
Overall bit rate mode : Variable
Overall bit rate : 1 760 kb/s
Law rating : N/A
Writing application : Lavf58.32.104

Watch WWE TLC 2020 Online

Video
ID : 1
Format : AVC
Duration : 3 h 0 min
Bit rate mode : Variable
Bit rate : 1 627 kb/s
Maximum bit rate : 1 663 kb/s
Width : 896 pixels
Height : 504 pixels
Display aspect ratio : 16:9
Frame rate mode : Variable
Frame rate : 30.000 FPS
Minimum frame rate : 14.925 FPS
Maximum frame rate : 30.303 FPS
Standard : NTSC
Color space : YUV
Chroma subsampling : 4:2:0
Bit depth : 8 bits
Scan type : Progressive
Bits/(Pixel*Frame) : 0.120
Stream size : 2.05 GiB (92%)
Color range : Limited
Color primaries : BT.709
Transfer characteristics : BT.709
Matrix coefficients : BT.709
Codec configuration box : avc

Watch WWE TLC 2020 Online

Audio
ID : 2
Format : AAC LC
Format/Info : Advanced Audio Codec Low Complexity
Codec ID : mp4a-40-2
Duration : 3 h 0 min
Bit rate mode : Variable
Bit rate : 125 kb/s
Maximum bit rate : 130 kb/s
Channel(s) : 2 channels
Channel layout : L R
Sampling rate : 48.0 kHz
Frame rate : 46.875 FPS (1024 SPF)
Compression mode : Lossy
Stream size : 161 MiB (7%)
Default : Yes
Alternate group : 1

Text #1
ID : 1-CC1
Format : EIA-608
Muxing mode : SCTE 128 / DTVCC Transport
Muxing mode, more info : Muxed in Video #1
Duration : 3 h 0 min
Bit rate mode : Constant
Stream size : 0.00 Byte (0%)
CaptionServiceName : CC1

Watch WWE TLC 2020 Online

Text #2
ID : 1-CC3
Format : EIA-608
Muxing mode : SCTE 128 / DTVCC Transport
Muxing mode, more info : Muxed in Video #1
Duration : 3 h 0 min
Bit rate mode : Constant
Stream size : 0.00 Byte (0%)
CaptionServiceName : CC3

Text #3
ID : 1-2
Format : EIA-708
Muxing mode : SCTE 128 / DTVCC Transport
Muxing mode, more info : Muxed in Video #1
Duration : 3 h 0 min
Bit rate mode : Constant
Stream size : 0.00 Byte (0%)

 WWE TLC 2020 Online

Text #4
ID : 1-3
Format : EIA-708
Muxing mode : SCTE 128 / DTVCC Transport
Muxing mode, more info : Muxed in Video #1
Duration : 3 h 0 min
Bit rate mode : Constant
Stream size : 0.00 Byte (0%)

Text #5
ID : 1-4
Format : EIA-708
Muxing mode : SCTE 128 / DTVCC Transport
Muxing mode, more info : Muxed in Video #1
Duration : 3 h 0 min
Bit rate mode : Constant
Stream size : 0.00 Byte (0%)

Watch WWE TLC 2020 Online

Text #6
ID : 1-5
Format : EIA-708
Muxing mode : SCTE 128 / DTVCC Transport
Muxing mode, more info : Muxed in Video #1
Duration : 3 h 0 min
Bit rate mode : Constant
Stream size : 0.00 Byte (0%)

Text #7
ID : 1-6
Format : EIA-708
Muxing mode : SCTE 128 / DTVCC Transport
Muxing mode, more info : Muxed in Video #1
Duration : 3 h 0 min
Bit rate mode : Constant
Stream size : 0.00 Byte (0%)

 

[/su_expand]

 

https://dx-tv.com/

You May Also Like

Leave a Reply

Your email address will not be published. Required fields are marked *

This site uses Akismet to reduce spam. Learn how your comment data is processed.