Watch WWE This Week 2020 02 06 720p

Watch WWE This Week 2020 02 06 720p DX-TV

 

WWE

 

 wwe

 

 

 

 

Watch WWE This Week 2020 02 06 720p

 

 

 WWE

 

 

Complete name : WWE.This.Week.2020.02.06.720p.WEB.h264-HEEL.mp4
Format : MPEG-4
Format profile : Base Media
File size : 736 MiB
Duration : 29 min 3 s
Overall bit rate mode : Variable
Overall bit rate : 3 541 kb/s
Writing application : Lavf58.32.104

Video
ID : 1
Format : AVC
Duration : 29 min 3 s
Bit rate : 3 372 kb/s
Width : 1 280 pixels
Height : 720 pixels
Display aspect ratio : 16:9
Frame rate mode : Constant
Frame rate : 30.000 FPS
Color space : YUV
Chroma subsampling : 4:2:0
Bit depth : 8 bits
Scan type : Progressive
Bits/(Pixel*Frame) : 0.122
Stream size : 694 MiB (94%)

Audio
ID : 2
Format : AAC LC
Format/Info : Advanced Audio Codec Low Complexity
Codec ID : mp4a-40-2
Duration : 29 min 2 s
Bit rate mode : Variable
Bit rate : 192 kb/s
Maximum bit rate : 488 kb/s
Channel(s) : 2 channels
Channel layout : L R
Sampling rate : 48.0 kHz
Frame rate : 46.875 FPS (1024 SPF)
Compression mode : Lossy
Stream size : 40.2 MiB (5%)
Default : Yes
Alternate group : 1

 

Watch WWE

 

Watch online

 

 

Server 1

 

 

 

 

Watch WWE This Week 2020 02 06 720p

 

Watch WWE

 

Uploaded By Site DX-TV.com

 

 

 

 

 

1fichier.com 

 

 

DDL.to

 

 

dl.free.fr

 

 

earn4files.com

 

 

rockfile.co

 

Watch WWE

 

Download with premium account Links 

 

 

Keep2Share

 

 

nitroflare.com

 

 

rapidgator.net

 

 

uploadgig.com

 

 

 

dx-tv.com

 

 77 total views,  2 views today

%d bloggers like this: