Watch WWE This Week 2019 05 10 720p WEB HEEL free full show online

Watch WWE This Week 2019 05 10 720p WEB HEEL free full show online

 

 

 

 


 

 

 

dx-tv.com

 

 

 

 

 
Complete name : WWE.This.Week.2019.05.10.720p.WEB.h264-HEEL.mp4
Format : MPEG-4
Format profile : Base Media
Codec ID : isom (isom/iso2/avc1/mp41)
File size : 927 MiB
Duration : 29 min 2 s
Overall bit rate mode : Variable
Overall bit rate : 4 459 kb/s
Writing application : Lavf58.23.101

Video
ID : 1
Format : AVC
Format/Info : Advanced Video Codec
Codec ID : avc1
Codec ID/Info : Advanced Video Coding
Duration : 29 min 2 s
Bit rate mode : Variable
Bit rate : 4 357 kb/s
Maximum bit rate : 5 500 kb/s
Width : 1 280 pixels
Height : 720 pixels
Display aspect ratio : 16:9
Frame rate mode : Constant
Frame rate : 29.970 (30000/1001) FPS
Color space : YUV
Chroma subsampling : 4:2:0
Bit depth : 8 bits
Scan type : Progressive
Bits/(Pixel*Frame) : 0.158
Stream size : 905 MiB (98%)
Codec configuration box : avcC

Audio
ID : 2
Format : AAC LC
Format/Info : Advanced Audio Codec Low Complexity
Codec ID : mp4a-40-2
Duration : 29 min 2 s
Bit rate mode : Variable
Bit rate : 96.0 kb/s
Channel(s) : 2 channels
Channel layout : L R
Sampling rate : 48.0 kHz
Frame rate : 46.875 FPS (1024 SPF)
Compression mode : Lossy
Stream size : 19.4 MiB (2%)
Default : Yes
Alternate group : 1

 

 

 

 

 


 

 

 

Watch WWE This Week 2019 05 10 720p WEB HEEL free full show online

 

 

 

 

Watch online

 

 

Waiting finish converting video

 

 

Server 1

 

 

 

 

 

 


 

 

 

 

 


 

 

Server 2

 

 

 

 


 

 

 

 

 


 

 

 

Uploaded By Site DX-TV.com

 

 

 

open rar file to see this password

 

 

 

 

The password : DX-TV.com

 

 

 


 

 

 

https://shrt10.com/GQcBids8
 

 

https://shrt10.com/Exlq
 

 

https://shrt10.com/tSkxosJO
 

 

https://shrt10.com/ipid

 

 

 

 

 

Watch WWE This Week 2019 05 10 720p WEB HEEL free full show online

Leave a Reply

Your email address will not be published. Required fields are marked *