Watch WWE The New Day Feel The Power E16 Online DX-TV

WWE The New Day Feel The Power E16 The Great TV Tournament Part 2 of 2 1080p DX-TV

WWE The New Day Feel

 

 WWE The New Day Feel


 

[su_expand more_text=”Show More Info” less_text=”Close all Info” height=”30″ text_color=”#000000″ link_color=”#e25f8b” link_style=”button” more_icon=”icon: arrow-down” less_icon=”icon: arrow-up”]

 

Complete name : WWE.The.New.Day.Feel.The.Power.E16.The.Great.TV.Tournament.Part.2.of.2.1080p.WEB.h264-HEEL.mp4
Format : MPEG-4
Format profile : Base Media
Codec ID : isom
File size : 3.85 GiB
Duration : 1 h 9 min
Overall bit rate mode : Variable
Overall bit rate : 7 971 kb/s
Writing application : Lavf58.32.104

WWE The New Day Feel

Video
ID : 1
Format : AVC
Duration : 1 h 9 min
Bit rate : 7 808 kb/s
Width : 1 920 pixels
Height : 1 080 pixels
Display aspect ratio : 16:9
Frame rate mode : Constant
Frame rate : 30.000 FPS
Color space : YUV
Chroma subsampling : 4:2:0
Bit depth : 8 bits
Scan type : Progressive
Bits/(Pixel*Frame) : 0.126
Stream size : 3.75 GiB

Watch  WWE The New Day Feel

Audio
ID : 2
Format : AAC LC
Format/Info : Advanced Audio
Codec ID : mp4a-40-2
Duration : 1 h 9 min
Bit rate mode : Variable
Bit rate : 192 kb/s
Maximum bit rate : 297 kb/s
Channel(s) : 2 channels
Channel layout : L R
Sampling rate : 48.0 kHz
Frame rate : 46.875 FPS
Compression mode : Lossy
Stream size : 95.4 MiB
Default : Yes
Alternate group : 1

WWE The New Day Feel

 

[/su_expand]

 

 

Watch online

 

 

Server 1

 

 

 

 

 

 

 

 

Server-2

 

WWE The New Day Feel

 

 

 

 

 

 

Uploaded By Site DX-TV.com

Watch  WWE The New Day Feel

 

Download Links with premium High Speed   

 

 

 

 

dropapk.to

 

 

 

nitroflare.com

 

 

 

rapidgator.net

 

 

 

uploaded.net

 

 

 

uploadgig.com

 

 

 

 

 

dx-tv.com

 

urlfree.net

You May Also Like