Watch WWE The Bump 2019 10 09

Watch WWE The Bump 2019 10 09 1080p DX-TV

 

 

The Bump

 

 

 

 

dx-tv.com

 

 

 

 

Watch WWE The Bump 2019 10 09

 

 

 

 

 

Complete name : WWE.The.Bump.2019.10.09.1080p.WEB.h264-HEEL.mp4
Format : MPEG-4
Format profile : Base Media
File size : 2.17 GiB
Duration : 1 h 9 min
Overall bit rate : 4 442 kb/s

Video
ID : 1
Duration : 1 h 9 min
Bit rate : 4 301 kb/s
Width : 1 920 pixels
Height : 1 080 pixels
Display aspect ratio : 16:9
Frame rate mode : Variable
Frame rate : 30.000 FPS
Minimum frame rate : 28.571 FPS
Maximum frame rate : 31.250 FPS
Color space : YUV
Chroma subsampling : 4:2:0
Bit depth : 8 bits
Scan type : Progressive
Bits/(Pixel*Frame) : 0.069
Stream size : 2.10 GiB (97%)
Codec configuration box : avcC

Audio
Codec ID : mp4a-40-2
Duration : 1 h 9 min
Bit rate mode : Constant
Bit rate : 132 kb/s
Channel(s) : 2 channels
Channel layout : L R
Sampling rate : 48.0 kHz
Frame rate : 46.875 FPS (1024 SPF)
Compression mode : Lossy
Stream size : 65.7 MiB (3%)

 

 

 

 

 

Watch online

 

 

Waiting finish converting video

 

 

Server 1

 

 

 

 

 

 

 

 

 

 

 

 

Server 2

 

 

 

 

 

 

 

 

 

 

 

 

 

 

 

Uploaded By Site DX-TV.com

 

 

 

 

 

Watch WWE The Bump 2019 10 09

 

 

 

 

 

 

Recommended For Free

 

 

 

4downfiles.org

 

 

 

earn4files.com

 

 

 

fileup.cc

 

 

 

uptobox.com

 

 

 

 

Download with high speed with Premium account

 

 

 

 

nitroflare.com

 

 

 

rapidgator.net

 

 

 

uploaded.net

 

 

 

uploadgig.com

 

 

 

 

 

 

Leave a Reply

Your email address will not be published. Required fields are marked *

thirteen + 13 =

WhatsApp chat