Watch WWE The Bump 2020 02 05 1080p

Watch WWE The Bump 2020 02 05 1080p DX-TV

 

 

 

 wwe

 

 

 

 

Watch WWE The Bump 2020 02 05 1080p

 

 

 

 

Complete name : WWE.The.Bump.2020.02.05.1080p.WEB.h264-HEEL.mp4
Format : MPEG-4
Format profile : Base Media
Codec ID : isom
File size : 1.38 GiB
Duration : 1 h 39 min
Overall bit rate : 1 982 kb/s
Writing application : Lavf58.32.104

Video
ID : 1
Format : AVC
Duration : 1 h 39 min
Bit rate : 1 850 kb/s
Width : 1 920 pixels
Height : 1 080 pixels
Display aspect ratio : 16:9
Frame rate mode : Constant
Frame rate : 30.000 FPS
Color space : YUV
Chroma subsampling : 4:2:0
Bit depth : 8 bits
Scan type : Progressive
Bits/(Pixel*Frame) : 0.030
Stream size : 1.29 GiB (93%)
Color range : Limited
Color primaries : BT.709
Transfer characteristics : BT.709
Matrix coefficients : BT.709
Codec configuration box : avcC

Audio
ID : 2
Format : AAC LC
Codec ID : mp4a-40-2
Duration : 1 h 39 min
Bit rate mode : Constant
Bit rate : 125 kb/s
Channel(s) : 2 channels
Channel layout : L R
Sampling rate : 48.0 kHz
Frame rate : 46.875 FPS (1024 SPF)
Compression mode : Lossy
Stream size : 89.6 MiB (6%)
Default : Yes
Alternate group : 1

 

 

 

Watch online

 

 

Server 1

WWE The Bump

 

 

 

 

 

 

 

 

 

 

Server 2

 

 

 

 

 

 

 

 

 

 

Server–3

 

 

 

 

 

 

 

 

 

Watch WWE The Bump 2020 02 05 1080p

 

 

 

Uploaded By Site DX-TV.com

 

 

 

 

 

1fichier.com 

 

 

DDL.to

 

 

earn4files.com

 

 

rockfile.co

 

 

 

Download with premium account Links 

 

 

nitroflare.com

 

 

rapidgator.net

 

 

Keep2Share

 

 

 

dx-tv.com