Watch WWE The Bump 2020 01 15 1080p

Watch WWE The Bump 2020 01 15 1080p DX-TV

 

 

WWE Raw

 

 

 

 

dx-tv.com

 

 

 

 

Watch WWE The Bump 2020 01 15 1080p

 

 

 

 

 

Complete name : WWE.The.Bump.2020.01.15.1080p.WEB.h264-HEEL.mp4
Format : MPEG-4
Format profile : Base Media
File size : 1.56 GiB
Duration : 1 h 0 min
Overall bit rate : 3 676 kb/s
Writing application : Lavf58.30.100

Video
ID : 1
Format : AVC
Duration : 1 h 0 min
Bit rate : 3 603 kb/s
Width : 1 920 pixels
Height : 1 080 pixels
Display aspect ratio : 16:9
Frame rate mode : Variable
Frame rate : 30.000 FPS
Minimum frame rate : 28.571 FPS
Maximum frame rate : 31.250 FPS
Color space : YUV
Chroma subsampling : 4:2:0
Bit depth : 8 bits
Scan type : Progressive
Bits/(Pixel*Frame) : 0.058
Stream size : 1.53 GiB (98%)
Codec configuration box : avcC

Audio
ID : 2
Format : AAC LC
Format/Info : Advanced Audio Codec Low Complexity
Codec ID : mp4a-40-2
Duration : 1 h 0 min
Bit rate mode : Constant
Bit rate : 64.0 kb/s
Channel(s) : 2 channels
Channel layout : L R
Sampling rate : 48.0 kHz
Frame rate : 46.875 FPS (1024 SPF)
Compression mode : Lossy
Stream size : 27.9 MiB (2%)
Default : Yes
Alternate group : 1

 

 

 

 

 

 

Watch online

 

 

Server 1

 

 

 

 

 

 

 

 

 

 

Server 2

 

 

 

 

 

 

 

 

 

 

Server–3

 

 

 

 

 

 

 

 

Watch WWE The Bump 2020 01 15 1080p

 

 

 

Uploaded By Site DX-TV.com

 

 

 

 

Download VIP Members FTP Link and Free Links 

 

 

Limited Time will be removed after 30 days if you need available again pm email admin

 

[member]
 

FTP Link Download high speed

 

[/member]

1fichier.com 

 

 

 

dailyuploads.net

 

 

earn4files.com

 

 

dl.free.fr

 

 

katfile.com

 

 

rockfile.co

 

 

uploadbank.com 

 

 

 

 

 

Download with premium account Links 

 

 

nitroflare.com

 

 

rapidgator.net

 

 

uploaded.net

 

 

 

 

 

 

 

 

 

 31 total views,  1 views today

%d bloggers like this:
Optimized with PageSpeed Ninja