Watch WWE Table For 3 S05E02 2019 05 06 720p HEEL free full show

Watch WWE Table For 3 S05E02 2019 05 06 720p HEEL free full show

 

 

 

 


 

 

 

dx-tv.com

 

 

 

 

 
Complete name : WWE.Table.For.3.S05E02.Superstar.Wives.720p.WEB.h264-HEEL.mp4
Format : MPEG-4
Format profile : Base Media
Codec ID : isom (isom/iso2/avc1/mp41)
File size : 779 MiB
Duration : 24 min 15 s
Overall bit rate mode : Variable
Overall bit rate : 4 493 kb/s
Writing application : Lavf58.26.101

Video
ID : 1
Format : AVC
Format/Info : Advanced Video Codec
Format settings, Reference : 3 frames
Codec ID : avc1
Codec ID/Info : Advanced Video Coding
Duration : 24 min 15 s
Bit rate mode : Variable
Bit rate : 4 390 kb/s
Maximum bit rate : 5 500 kb/s
Width : 1 280 pixels
Height : 720 pixels
Display aspect ratio : 16:9
Frame rate mode : Constant
Frame rate : 29.970 (30000/1001) FPS
Color space : YUV
Chroma subsampling : 4:2:0
Bit depth : 8 bits
Scan type : Progressive
Bits/(Pixel*Frame) : 0.159
Stream size : 762 MiB (98%)
Codec configuration box : avcC

Audio
ID : 2
Format : AAC LC
Format/Info : Advanced Audio Codec Low Complexity
Codec ID : mp4a-40-2
Duration : 24 min 15 s
Bit rate mode : Variable
Bit rate : 93.5 kb/s
Maximum bit rate : 94.5 kb/s
Channel(s) : 2 channels
Channel layout : L R
Sampling rate : 48.0 kHz
Frame rate : 46.875 FPS (1024 SPF)
Compression mode : Lossy
Stream size : 16.2 MiB (2%)
Default : Yes
Alternate group : 1

 

 

 

 

 


 

 

 

Watch WWE Table For 3 S05E02 2019 05 06 720p HEEL free full show

 

 

 

 

Watch online

 

 

Waiting finish converting video

 

 

Server 1

 

 

 

 

 


 

 

 


 

 


 

 

 

Uploaded By Site DX-TV.com

 

 

 

open rar file to see this password

 

 

 

 

The password : DX-TV.com

 

 

 

 

Uploaded.net + rapidgator.net + katfile.com + bitster.cz

 

 

 

 


 

 

https://shrt10.com/vgPvMK
 

 

 

https://shrt10.com/zrbZO70
 

 

 

https://shrt10.com/QB31x5
 

 

 

https://shrt10.com/OsBybux

 

 

 

 

 

Watch WWE Table For 3 S05E02 2019 05 06 720p HEEL free full show

Leave a Reply

Your email address will not be published. Required fields are marked *