Watch WWE Table For 3 S04E07 Womens Championship Evolution 720p WEB HEEL

Watch WWE Table For 3 S04E07 Womens Championship Evolution 720p WEB HEEL

 

 

 

 


 

 

 

dx-tv.com

 

 

 

 

 

Complete name : WWE.Table.For.3.S04E07.Womens.Championship.Evolution.720p.WEB.h264-HEEL.mp4
Format : MPEG-4
Format profile : Base Media
File size : 778 MiB
Duration : 24 min 14 s
Overall bit rate mode : Variable
Overall bit rate : 4 485 kb/s
Writing application : Lavf58.2.103

Video
ID : 1
Format : AVC
Format/Info : Advanced Video Codec
Codec ID/Info : Advanced Video Coding
Duration : 24 min 14 s
Bit rate mode : Variable
Bit rate : 4 383 kb/s
Maximum bit rate : 5 500 kb/s
Width : 1 280 pixels
Height : 720 pixels
Display aspect ratio : 16:9
Frame rate mode : Constant
Color space : YUV
Chroma subsampling : 4:2:0
Bit depth : 8 bits
Scan type : Progressive
Bits/(Pixel*Frame) : 0.159
Stream size : 760 MiB (98%)

Audio
ID : 2
Format : AAC
Format/Info : Advanced Audio Codec
Format profile : LC
Codec ID : mp4a-40-2
Duration : 24 min 14 s
Bit rate mode : Constant
Bit rate : 93.5 kb/s
Channel(s) : 2 channels
Channel positions : Front: L R
Sampling rate : 48.0 kHz
Frame rate : 46.875 FPS (1024 SPF)
Compression mode : Lossy
Stream size : 16.2 MiB (2%)
Default : Yes
Alternate group : 1

 

 

 

 

 

Watch WWE Table For 3 S04E07 Womens Championship Evolution 720p WEB HEEL

 

 

 

 

Watch online

 

 

Waiting finish converting video

 

 

Server 1

 

 

 

 

 

 

 

 

 

 

 

 

 

 

 

 

 

Server 2

 

 

 

 

 

 


 

 

 

 

 

Uploaded By Site DX-TV.com

 

 

 

open rar file to see this password

 

 

 

 

The password : DX-TV.com

 

 

 

 

 

 

Uploaded.net + rapidgator.net

 

 

 

 

 

 

http://shrt10.com/IyJv

 

 

 
http://shrt10.com/12cZL
 

 

 

 

 

 

 

 

 

Watch WWE Table For 3 S04E07 Womens Championship Evolution 720p WEB HEEL

Support HVIPS

Please Disable Ad-Block To View This site. just help us to continue this work