Watch WWE Swerve City Podcast William Regal DX-TV

Watch WWE Swerve City Podcast William Regal 1080p DX-TV

Watch WWE Swerve City

 Watch WWE Swerve City

 

Download Links with premium High Speed   

 

 

 

nitroflare.com

http://shrt10.com/e2kTx

 

 

rapidgator.net

http://shrt10.com/XkMMpt3cE

 

 

uploaded.net

http://shrt10.com/TeKKgWE

 

 

uploadgig.com

http://shrt10.com/v9ADgAn

 

 

 

Watch online

 

Server 1

 

 

 

 

Watch WWE Swerve City

 

 

 

 

Server-2

 

 

 

 

watch now

 

 

Uploaded By Site DX-TV.com

 

 

 

[su_expand more_text=”Show More Info” less_text=”Close all Info” height=”50″ text_color=”#000000″ link_color=”#e25f8b” link_style=”button” more_icon=”icon: arrow-down” less_icon=”icon: arrow-up”]

Complete name : WWE.Swerve.City.Podcast.E10.William.Regal.1080p.WEB.h264-HEEL.mp4
Format : MPEG-4
Format profile : Base Media
Codec ID : isom
File size : 3.68 GiB
Duration : 1 h 6 min
Overall bit rate : 7 963 kb/s
Writing application : Lavf58.32.104

Watch WWE Swerve City

Video
ID : 1
Format : AVC
Duration : 1 h 6 min
Bit rate : 7 808 kb/s
Width : 1 920 pixels
Height : 1 080 pixels
Display aspect ratio : 16:9
Frame rate mode : Constant
Frame rate : 30.000 FPS
Color space : YUV
Chroma subsampling : 4:2:0
Bit depth : 8 bits
Scan type : Progressive
Bits/(Pixel*Frame) : 0.126
Stream size : 3.59 GiB (98%)

Watch WWE Swerve City

Audio
ID : 2
Format : AAC LC
Format/Info : Advanced Audio
Codec ID : mp4a-40-2
Duration : 1 h 6 min
Bit rate mode : Constant
Bit rate : 184 kb/s
Channel(s) : 2 channels
Channel layout : L R
Sampling rate : 48.0 kHz
Frame rate : 46.875 FPS (1024 SPF)
Compression mode : Lossy
Stream size : 87.2 MiB (2%)
Default : Yes
Alternate group : 1

 WWE Swerve City

Format : AAC LC
Format/Info : Advanced Audio
Codec ID : mp4a-40-2
Duration : 1 h 6 min
Bit rate mode : Constant
Bit rate : 184 kb/s
Channel(s) : 2 channels
Channel layout : L R
Sampling rate : 48.0 kHz
Frame rate : 46.875 FPS (1024 SPF)
Compression mode : Lossy
Stream size : 87.2 MiB (2%)
Default : Yes
Alternate group : 1

Watch WWE Swerve  

Format : AAC LC
Format/Info : Advanced Audio
Codec ID : mp4a-40-2
Duration : 1 h 6 min
Bit rate mode : Constant
Bit rate : 184 kb/s
Channel(s) : 2 channels
Channel layout : L R
Sampling rate : 48.0 kHz
Frame rate : 46.875 FPS (1024 SPF)
Compression mode : Lossy
Stream size : 87.2 MiB (2%)
Default : Yes
Alternate group : 1

 

Bit rate : 184 kb/s
Channel(s) : 2 channels
Channel layout : L R
Sampling rate : 48.0 kHz
Frame rate : 46.875 FPS (1024 SPF)
Compression mode : Lossy
Stream size : 87.2 MiB (2%)
Default : Yes
Alternate group : 1

[/su_expand]

 

https://dx-tv.com/

You May Also Like

Leave a Reply

Your email address will not be published. Required fields are marked *

This site uses Akismet to reduce spam. Learn how your comment data is processed.